百度云资源论坛

 找回密码
 立即注册
搜索

超人洛克 魔女世纪 Locke.the.Superman.1984.JAPANESE.1080p.BluRay.x264.FLAC2.0-NY ...

[复制链接]
admin 发表于 2021-5-23 14:37:49 | 显示全部楼层 |阅读模式
超人洛克 魔女世纪 Locke.the.Superman.1984.JAPANESE.1080p.BluRay.x264.FLAC2.0-NY 8.84GB                                                                                                                                                                              -->
帖子完整标题:超人洛克 魔女世纪 Locke.the.Superman.1984.JAPANESE.1080p.BluRay.x264.FLAC2.0-NY 8.84GB




◎译  名 超人洛克 魔女世纪/Ch?jin Locke
◎片  名 超人ロック 魔女の世紀
◎年  代 1984
◎产  地 日本
◎类  别 科幻 / 动画
◎语  言 日语
◎上映日期 1984-03-11
◎豆瓣评分 /10 from 0 users
◎ 
◎导  演 福富博 Fukutomi Hiroshi
◎编  剧 大和屋竺 Atsushi Yamatoya
◎主  演 难波圭一 Keiichi Nanba
     安原义人 Yoshito Yasuhara
     潘惠子 Keiko Han
     藤田淑子 Toshiko Fujita
     柴田秀胜 Hidekatsu Shibata
     中西妙子 Taeko Nakanishi
     矢田耕司 K?ji Yada
     寺岛干夫 Mikio Terashima
     村松康雄 Yasuo Muramatsu
     田中秀幸 Hideyuki Tanaka
     平林尚三 Sh?z? Hirabayashi
     信泽三惠子 Mieko Nobusawa
     银河万丈 Banj? Ginga
     田中亮一 Ry?ichi Tanaka
     千叶繁 Shigeru Chiba
     佐藤正治 Masaharu Sato
     高岛雅罗 Gara Takashima
     富泽美智惠 Michie Tomizawa
     山田荣子 Yamada Eiko
     顿宫恭子 Ky?ko Tong?
     户谷公次 K?ji Totani
     乡里大辅 Daisuke G?ri
     盐屋浩三 K?z? Shioya
     高宫俊介 Shunsuke Takamiya

◎标  签 日本动画 | 剧场版 | 福富博 | 日本电影 | 难波圭一 | 超人洛克 | 超人ロック | 聖悠紀

◎简  介

  エスパーたちが支配する千年王国を築こうと企てるレディ?カーン。連邦軍情報局長官ヤマキは、その調査のため、超戦士ロックに協力を依頼する。一方でロックを倒すためカーンはジェシカという少女を特殊なエスパーキラーに育て上げ、記憶を失わせてヤマキに接近させる。ジェシカには、超能力を中和してエスパーを分解する能力が潜んでいたのだった。そしてヤマキとジェシカは操られていることを知らぬまま、互いに惹かれあっていく。そしてついにロックとジェシカの2人が出会いの時を迎える。人気SFコミック「超人ロック」の「魔女の世紀」編を劇場用アニメ化。
Video
ID             : 1
Format           : AVC
Format/Info          : Advanced Video Codec
Format profile         :
Format settings        : CABAC / 4 Ref Frames
Format settings, CABAC       : Yes
Format settings, Reference frames  : 4 frames
Codec ID           : V_MPEG4/ISO/AVC
Duration           : 1 h 59 min
Bit rate           : 9 787 kb/s
Width            : 1 920 pixels
Height           : 1 036 pixels
Display aspect ratio       : 1.85:1
Frame rate mode        : Constant
Frame rate           : 23.976 (24000/1001/189150) FPS
Color space          : YUV
Chroma subsampling       : 4:2:0
Bit depth          : 8 bits
Scan type          : Progressive
Bits/(Pixel*Frame)       : 0.205
Stream size          : 8.19 GiB (93%)
Writing library        : x264 core 157 r2935 545de2f
Encoding settings        : cabac=1 / ref=4 / deblock=1:-3:-3 / analyse=0x3:0x133 / me=umh / subme=10 / psy=1 / psy_rd=1.00:0.00 / mixed_ref=1 / me_range=32 / chroma_me=1 / trellis=2 / 8x8dct=1 / cqm=0 / deadzone=21,11 / fast_pskip=0 / chroma_qp_offset=-2 / threads=30 / lookahead_threads=7 / sliced_threads=0 / nr=0 / decimate=0 / interlaced=0 / bluray_compat=0 / constrained_intra=0 / bframes=16 / b_pyramid=2 / b_adapt=2 / b_bias=0 / direct=3 / weightb=1 / open_gop=0 / weightp=2 / keyint=240 / keyint_min=24 / scenecut=40 / intra_refresh=0 / rc_lookahead=60 / rc=crf / mbtree=0 / crf=19.5 / qcomp=0.60 / qpmin=0 / qpmax=69 / qpstep=4 / vbv_maxrate=62500 / vbv_bufsize=78125 / crf_max=0.0 / nal_hrd=none / filler=0 / ip_ratio=1.40 / pb_ratio=1.30 / aq=2:1.00
Default            : Yes
Forced           : No
Color range          : Limited
Color primaries        : BT.709
Transfer characteristics     : BT.709
Matrix coefficients        : BT.709

Audio #1
ID             : 2
Format           : AAC LC
Format/Info          : Advanced Audio Codec Low Complexity
Codec ID           : A_AAC-2
Duration           : 1 h 59 min
Bit rate           : 155 kb/s
Channel(s)           : 2 channels
Channel layout         : L R
Sampling rate          : 48.0 kHz
Frame rate           : 46.875 FPS (1024 SPF)
Compression mode         : Lossy
Stream size          : 133 MiB (1%)
Language           : English
Default            : Yes
Forced           : No

Audio #2
ID             : 4
Format           : FLAC
Format/Info          : Free Lossless Audio Codec
Codec ID           : A_FLAC
Duration           : 1 h 59 min
Bit rate mode          : Variable
Bit rate           : 613 kb/s
Channel(s)           : 2 channels
Sampling rate          : 48.0 kHz
Frame rate           : 11.719 FPS (4096 SPF)
Bit depth          : 16 bits
Compression mode         : Lossless
Stream size          : 525 MiB (6%)
Writing library        : libFLAC 1.2.1 (UTC 2007-09-17)
Language           : Japanese
Default            : No
Forced           : No

Text
ID             : 3
Format           : UTF-8
Codec ID           : S_TEXT/UTF8
Codec ID/Info          : UTF-8 Plain Text
Duration           : 1 h 59 min
Bit rate           : 44 b/s
Count of elements        : 1110
Stream size          : 39.4 KiB (0%)
Language           : English
Default            : Yes
Forced           : No

Menu
00:00:00.000         : :Chapter 01
00:11:29.105         : :Chapter 02
00:25:09.216         : :Chapter 03
00:34:37.993         : :Chapter 04
00:49:07.987         : :Chapter 05
00:58:04.648         : :Chapter 06
01:09:13.649         : :Chapter 07
01:19:43.946         : :Chapter 08
01:32:14.738         : :Chapter 09
01:48:12.736         : :Chapter 10





                                                                  
                                                                                                                                                                                                                                                                                 
e848a66d7b27c661c133b79699c7691f.torrent (44.83 KB, 下载次数: 0)

回复

使用道具 举报

小黑屋|百度云资源论坛

本网站所有资源来自网络,如无意中侵犯了您的权益,请发邮件至 [email protected],立即清除相关链接

GMT+8, 2022-1-19 08:27 , Processed in 0.106307 second(s), 30 queries .

Powered by Discuz! X3.2

© 2001-2013 Comsenz Inc.

快速回复 返回顶部 返回列表