百度云资源论坛

 找回密码
 立即注册
搜索

龙牌之谜 Journey.to.China.The.Mystery.of.Iron.Mask.2019.3D.1080p.BluRay.x264-GUA ...

[复制链接]
admin 发表于 2021-6-14 14:43:19 | 显示全部楼层 |阅读模式
龙牌之谜 Journey.to.China.The.Mystery.of.Iron.Mask.2019.3D.1080p.BluRay.x264-GUACAMO                                                                                                                                                                              -->
帖子完整标题:龙牌之谜 Journey.to.China.The.Mystery.of.Iron.Mask.2019.3D.1080p.BluRay.x264-GUACAMOLE 11.09GB



[/url]

◎译  名 龙牌之谜/Journey to China: The Secret of the Seal of the Dragon/Mystery of Dragon's Seal/Viy 2/Вий 2/Тайна Печати дракона: Путешествие в Китай/中国游记:龙牌之谜/魔鬼的精神2
◎片  名 Тайна печати дракона
◎年  代 2019
◎产  地 俄罗斯,中国大陆,美国
◎类  别 动作 / 奇幻 / 冒险
◎语  言 英语,俄语,汉语普通话
◎上映日期 2019-08-16(中国大陆)
◎豆瓣评分 3.6/10 from 15589 users
◎ 
◎片  长 120分钟
◎导  演 伊哥·斯坦普陈科 Oleg Stepchenko
◎编  剧 阿列克谢·彼得鲁欣 Alexey A. Petrukhin / 伊哥·斯坦普陈科 Oleg Stepchenko
◎主  演 成龙 Jackie Chan
     阿诺·施瓦辛格 Arnold Schwarzenegger
     杰森·弗莱明 Jason Flemyng
     姚星彤 Xingtong Yao
     马丽 Li Ma
     李彧 Yu Li
     刘智福 Lance Luu
     刘智堂 Charles Luu
     刘智满 Mark Luu
     李萌萌 Mengmeng Li
     安娜·邱丽娜 Anna Churina
     尤里·科洛科利尼科夫 Yuri Kolokolnikov
     巴维尔·沃利亚 Pavel Volya
     克里斯托弗·法里班克 Christopher Fairbank
     马丁·科勒巴 Martin Klebba
     查尔斯·丹斯 Charles Dance
     鲁特格尔·哈尔 Rutger Hauer
     巴雷特·科茨 Barret Coates
     伊戈尔·日日金 Igor Jijikin
     娜露潘格慕·柴辛 Narupornkamol Chaisang
     安德烈·梅尔兹利金 Andrey Merzlikin
     维伦·巴比切夫 Vilen Babichev
     苼楠塔茬·塔纳潘披散 Sananthachat Thanapatpisal
     彼得·拉斐尔森 Peter Rafelson
     尼基塔·塔拉索夫 Nikita Tarasov
     阿列克谢·彼得鲁欣 Alexey A. Petrukhin
     葵咪莎拉·普碟 Kemisara Paladesh
     安东尼·加瓦德 Anthony Gavard
     马蒂厄·雅克 Mathieu Jaquet
     莱安德罗·梅厄·马丁内斯 Leandro Mayor Martinez
     赵婉瑜 Wanyu Zhao
     梁新展 Xinzhan Liang
     李建桥 Lijianqiao
     查雅妮·臣姗卡维 Chayanit Chansangavej

◎标  签 奇幻 | 动作 | 中国 | 魔幻 | 冒险 | 2019 | 俄罗斯 | 阿诺德·施瓦辛格

◎简  介

  电影《龙牌之谜》讲述了古老的东方传说——龙王在睡觉的时候睫毛长到地里能够长出茶叶。龙王把法力封印在龙牌里,并把这种力量赋予了替他照料睫毛的白魔法大师(成龙饰)和他的女儿成兰(姚星彤饰)。邪恶的黑魔法师将白魔法大师和成兰关进了异国监狱,龙王也陷入了沉睡,以茶叶为生的广大村民从此生活在水深火热之中……

◎获奖情况

  第41届金酸莓奖 ?(2021)
  最差男配角(提名) 阿诺·施瓦辛格
Video
ID             : 1
Format           : AVC
Format/Info          : Advanced Video Codec
Format profile         :
MultiView_Count        : 2
MultiView_Layout         : Side by Side (left eye first)
Format settings        : CABAC / 4 Ref Frames
Format settings, CABAC       : Yes
Format settings, Reference frames  : 4 frames
Codec ID           : V_MPEG4/ISO/AVC
Duration           : 2 h 0 min
Bit rate           : 10.9 Mb/s
Width            : 1 920 pixels
Height           : 1 040 pixels
Display aspect ratio       : 1.85:1
Frame rate mode        : Constant
Frame rate           : 23.976 (24000/1001/189150) FPS
Color space          : YUV
Chroma subsampling       : 4:2:0
Bit depth          : 8 bits
Scan type          : Progressive
Bits/(Pixel*Frame)       : 0.228
Stream size          : 9.21 GiB (83%)
Writing library        : x264 core 163 r3059 b684ebe
Encoding settings        : cabac=1 / ref=4 / deblock=1:-3:-3 / analyse=0x3:0x133 / me=umh / subme=8 / psy=1 / psy_rd=1.00:0.00 / mixed_ref=1 / me_range=32 / chroma_me=1 / trellis=2 / 8x8dct=1 / cqm=0 / deadzone=21,11 / fast_pskip=0 / chroma_qp_offset=-2 / threads=24 / lookahead_threads=4 / sliced_threads=0 / nr=0 / decimate=1 / interlaced=0 / bluray_compat=0 / constrained_intra=0 / bframes=3 / b_pyramid=2 / b_adapt=2 / b_bias=0 / direct=3 / weightb=1 / open_gop=0 / weightp=2 / keyint=250 / keyint_min=23 / scenecut=40 / intra_refresh=0 / rc_lookahead=50 / rc=crf / mbtree=1 / crf=19.0 / qcomp=0.60 / qpmin=0 / qpmax=69 / qpstep=4 / ip_ratio=1.40 / aq=3:0.80
Language           : English
Default            : Yes
Forced           : No
Color range          : Limited
Matrix coefficients        : BT.709

Audio
ID             : 2
Format           : DTS XLL
Format/Info          : Digital Theater Systems
Commercial name        : DTS-HD Master Audio
Codec ID           : A_DTS
Duration           : 2 h 0 min
Bit rate mode          : Variable
Bit rate           : 2 208 kb/s
Channel(s)           : 6 channels
Channel layout         : C L R Ls Rs LFE
Sampling rate          : 48.0 kHz
Frame rate           : 93.750 FPS (512 SPF)
Bit depth          : 16 bits
Compression mode         : Lossless
Stream size          : 1.86 GiB (17%)
Language           : English
Default            : Yes
Forced           : No

Text #1
ID             : 3
Format           : PGS
Muxing mode          : zlib
Codec ID           : S_HDMV/PGS
Codec ID/Info          : Picture based subtitle format used on BDs/HD-DVDs
Duration           : 1 h 51 min
Bit rate           : 50.8 kb/s
Count of elements        : 2342
Stream size          : 40.5 MiB (0%)
Title            : Vobsubs
Language           : German
Default            : No
Forced           : No

Text #2
ID             : 4
Format           : PGS
Muxing mode          : zlib
Codec ID           : S_HDMV/PGS
Codec ID/Info          : Picture based subtitle format used on BDs/HD-DVDs
Duration           : 1 h 16 min
Bit rate           : 1 333 b/s
Count of elements        : 44
Stream size          : 747 KiB (0%)
Title            : Forced
Language           : German
Default            : No
Forced           : No

Menu
00:00:00.000         : en:Kapitel 01
00:11:38.197         : en:Kapitel 02
00:20:58.882         : en:Kapitel 03
00:29:33.897         : en:Kapitel 04
00:39:21.025         : en:Kapitel 05
00:49:42.771         : en:Kapitel 06
01:00:56.402         : en:Kapitel 07
01:09:50.477         : en:Kapitel 08
01:19:31.308         : en:Kapitel 09
01:29:00.126         : en:Kapitel 10
01:40:43.037         : en:Kapitel 11
01:50:20.864         : en:Kapitel 12

[/url]




                                                                  
                                                                                                                                                                                                                                                                                 
a1298bff7fc398645e39e379983f5e81.torrent (56.22 KB, 下载次数: 0)

回复

使用道具 举报

小黑屋|百度云资源论坛

本网站所有资源来自网络,如无意中侵犯了您的权益,请发邮件至 [email protected],立即清除相关链接

GMT+8, 2021-12-2 22:50 , Processed in 0.101400 second(s), 31 queries .

Powered by Discuz! X3.2

© 2001-2013 Comsenz Inc.

快速回复 返回顶部 返回列表