百度云资源论坛

 找回密码
 立即注册
搜索

21世纪的纽约 21.x.New.York.2016.720p.BluRay.x264-BiPOLAR 2.42GB

[复制链接]
admin 发表于 2021-9-21 16:23:06 | 显示全部楼层 |阅读模式
21世纪的纽约 21.x.New.York.2016.720p.BluRay.x264-BiPOLAR 2.42GB                                                                                                                                                                              -->
帖子完整标题:21世纪的纽约 21.x.New.York.2016.720p.BluRay.x264-BiPOLAR 2.42GB





◎译  名 21世纪的纽约
◎片  名 21 X New York
◎年  代 2016
◎产  地 波兰
◎类  别 纪录片
◎语  言 英语,汉语普通话
◎上映日期 2016-05-29(波兰)
◎豆瓣评分 /10 from 0 users
◎ 

◎标  签 纪录片 | WEB | 2016

◎简  介

  "21 x New York" is an intimate portrait of the city and its people. We meet the characters in the NYC subway and we follow them to the surface finding out about their lives, cravings, passions, hopes and dreams - sometimes lost and sometimes still waiting to be fulfilled. What comes out of it is an emotional tale of solitude that haunts us in 21st century western world.

◎获奖情况

  第29届欧洲电影奖 ?(2016)
  最佳纪录片(提名)
Video
ID             : 1
Format           : AVC
Format/Info          : Advanced Video Codec
Format profile         :
Format settings        : CABAC / 9 Ref Frames
Format settings, CABAC       : Yes
Format settings, Reference frames  : 9 frames
Codec ID           : V_MPEG4/ISO/AVC
Duration           : 1 h 13 min
Bit rate           : 4 327 kb/s
Width            : 1 280 pixels
Height           : 720 pixels
Display aspect ratio       : 16:9
Frame rate mode        : Constant
Frame rate           : 23.976 (24000/1001/189150) FPS
Color space          : YUV
Chroma subsampling       : 4:2:0
Bit depth          : 8 bits
Scan type          : Progressive
Bits/(Pixel*Frame)       : 0.196
Stream size          : 2.22 GiB (92%)
Writing library        : x264 core 164 r3065 ae03d92
Encoding settings        : cabac=1 / ref=9 / deblock=1:-3:-3 / analyse=0x3:0x133 / me=umh / subme=10 / psy=1 / psy_rd=1.00:0.15 / mixed_ref=1 / me_range=24 / chroma_me=1 / trellis=2 / 8x8dct=1 / cqm=0 / deadzone=21,11 / fast_pskip=1 / chroma_qp_offset=-3 / threads=18 / lookahead_threads=3 / sliced_threads=0 / nr=0 / decimate=1 / interlaced=0 / bluray_compat=0 / constrained_intra=0 / bframes=8 / b_pyramid=2 / b_adapt=2 / b_bias=0 / direct=3 / weightb=1 / open_gop=0 / weightp=2 / keyint=250 / keyint_min=23 / scenecut=40 / intra_refresh=0 / rc_lookahead=60 / rc=crf / mbtree=1 / crf=15.0 / qcomp=0.60 / qpmin=0 / qpmax=69 / qpstep=4 / ip_ratio=1.40 / aq=3:0.60
Language           : English
Default            : Yes
Forced           : No

Audio
ID             : 2
Format           : AC-3
Format/Info          : Audio Coding 3
Commercial name        : Dolby Digital
Codec ID           : A_AC3
Duration           : 1 h 13 min
Bit rate mode          : Constant
Bit rate           : 384 kb/s
Channel(s)           : 6 channels
Channel layout         : L R C LFE Ls Rs
Sampling rate          : 48.0 kHz
Frame rate           : 31.250 FPS (1536 SPF)
Compression mode         : Lossy
Stream size          : 202 MiB (8%)
Language           : English
Service kind         : Complete Main
Default            : Yes
Forced           : No

Menu
00:00:00.000         : en:00:00:00.000
00:07:00.921         : en:00:07:00.921
00:09:59.098         : en:00:09:59.098
00:12:26.746         : en:00:12:26.746
00:14:16.856         : en:00:14:16.856
00:18:52.632         : en:00:18:52.632
00:21:27.286         : en:00:21:27.286
00:23:28.407         : en:00:23:28.407
00:25:51.050         : en:00:25:51.050
00:29:01.240         : en:00:29:01.240
00:31:16.875         : en:00:31:16.875
00:37:34.252         : en:00:37:34.252
00:39:48.386         : en:00:39:48.386
00:41:26.484         : en:00:41:26.484
00:44:46.184         : en:00:44:46.184
00:48:30.908         : en:00:48:30.908
00:53:28.205         : en:00:53:28.205
00:54:43.280         : en:00:54:43.280
00:57:57.975         : en:00:57:57.975
01:07:17.033         : en:01:07:17.033
01:09:13.650         : en:01:09:13.650






                                                                  
                                                                                                                                                                                                                                                                                 
0f2dfa4c3b65d504a0fb33335115d12e.torrent (24.96 KB, 下载次数: 0)

回复

使用道具 举报

小黑屋|百度云资源论坛

本网站所有资源来自网络,如无意中侵犯了您的权益,请发邮件至 [email protected],立即清除相关链接

GMT+8, 2022-1-19 07:43 , Processed in 0.096091 second(s), 30 queries .

Powered by Discuz! X3.2

© 2001-2013 Comsenz Inc.

快速回复 返回顶部 返回列表