百度云资源论坛

 找回密码
 立即注册
搜索

何处安放你藏起的笑容? Where.Does.Your.Hidden.Smile.Lie.2001.720p.BluRay.x264-US ...

[复制链接]
admin 发表于 2021-9-30 15:22:46 | 显示全部楼层 |阅读模式
何处安放你藏起的笑容? Where.Does.Your.Hidden.Smile.Lie.2001.720p.BluRay.x264-USURY 3.62GB                                                                                                                                                                              -->
帖子完整标题:何处安放你藏起的笑容? Where.Does.Your.Hidden.Smile.Lie.2001.720p.BluRay.x264-USURY 3.62GB





◎译  名 何处安放你藏起的笑容?
◎片  名 Où g?t votre sourire enfoui?
◎年  代 2001
◎产  地 法国,葡萄牙
◎类  别 纪录片
◎语  言 意大利语,法语
◎上映日期 2001-09-05
◎豆瓣评分 8.1/10 from 199 users
◎ 
◎片  长 104分钟
◎导  演 佩德罗·科斯塔 Pedro Costa
◎主  演 达尼埃尔·于伊耶 Danièle Huillet
     让-马里·斯特劳布 Jean-Marie Straub

◎标  签 纪录片 | 法国 | 葡萄牙 | Pedro_Costa | 2000s | PedroCosta | 欧洲 | documentary

◎简  介

  This is another great film by Pedro Costa , a movie about the relationship between a couple of directors ( Danièle Huillet and Jean-Marie Straub) that are trying to edit the film ?Sicília!?. During that process Straub and Huillet talk about general and particular aspects of the movie industry, in a extremely interesting dialogue.
Video
ID             : 1
Format           : AVC
Format/Info          : Advanced Video Codec
Format profile         :
Format settings        : CABAC / 12 Ref Frames
Format settings, CABAC       : Yes
Format settings, Reference frames  : 12 frames
Codec ID           : V_MPEG4/ISO/AVC
Duration           : 1 h 46 min
Bit rate           : 4 185 kb/s
Width            : 960 pixels
Height           : 720 pixels
Display aspect ratio       : 4:3
Frame rate mode        : Constant
Frame rate           : 23.976 (24000/1001/189150) FPS
Color space          : YUV
Chroma subsampling       : 4:2:0
Bit depth          : 8 bits
Scan type          : Progressive
Bits/(Pixel*Frame)       : 0.253
Stream size          : 3.13 GiB (86%)
Writing library        : x264 core 164 r3065 ae03d92
Encoding settings        : cabac=1 / ref=12 / deblock=1:-3:-3 / analyse=0x3:0x133 / me=umh / subme=10 / psy=1 / psy_rd=1.00:0.15 / mixed_ref=1 / me_range=24 / chroma_me=1 / trellis=2 / 8x8dct=1 / cqm=0 / deadzone=21,11 / fast_pskip=1 / chroma_qp_offset=-3 / threads=18 / lookahead_threads=3 / sliced_threads=0 / nr=0 / decimate=1 / interlaced=0 / bluray_compat=0 / constrained_intra=0 / bframes=8 / b_pyramid=2 / b_adapt=2 / b_bias=0 / direct=3 / weightb=1 / open_gop=0 / weightp=2 / keyint=250 / keyint_min=23 / scenecut=40 / intra_refresh=0 / rc_lookahead=60 / rc=crf / mbtree=1 / crf=17.0 / qcomp=0.60 / qpmin=0 / qpmax=69 / qpstep=4 / ip_ratio=1.40 / aq=3:0.60
Language           : English
Default            : Yes
Forced           : No
Color range          : Limited
Matrix coefficients        : BT.709

Audio
ID             : 2
Format           : AC-3
Format/Info          : Audio Coding 3
Commercial name        : Dolby Digital
Codec ID           : A_AC3
Duration           : 1 h 46 min
Bit rate mode          : Constant
Bit rate           : 640 kb/s
Channel(s)           : 6 channels
Channel layout         : L R C LFE Ls Rs
Sampling rate          : 48.0 kHz
Frame rate           : 31.250 FPS (1536 SPF)
Compression mode         : Lossy
Stream size          : 489 MiB (13%)
Title            : French
Language           : French
Service kind         : Complete Main
Default            : Yes
Forced           : No

Text #1
ID             : 3
Format           : UTF-8
Codec ID           : S_TEXT/UTF8
Codec ID/Info          : UTF-8 Plain Text
Duration           : 1 h 42 min
Bit rate           : 57 b/s
Count of elements        : 891
Stream size          : 43.4 KiB (0%)
Title            : English
Language           : English
Default            : Yes
Forced           : Yes

Text #2
ID             : 4
Format           : PGS
Muxing mode          : zlib
Codec ID           : S_HDMV/PGS
Codec ID/Info          : Picture based subtitle format used on BDs/HD-DVDs
Duration           : 1 h 42 min
Bit rate           : 17.7 kb/s
Count of elements        : 1782
Stream size          : 12.9 MiB (0%)
Title            : English
Language           : English
Default            : No
Forced           : No

Menu
00:00:00.000         : en:00:00:00.000
00:09:21.436         : en:00:09:21.436
00:18:06.419         : en:00:18:06.419
00:28:30.459         : en:00:28:30.459
00:34:48.628         : en:00:34:48.628
00:44:05.685         : en:00:44:05.685
00:55:01.840         : en:00:55:01.840
01:05:07.737         : en:01:05:07.737
01:13:30.531         : en:01:13:30.531
01:32:56.237         : en:01:32:56.237
01:37:53.326         : en:01:37:53.326
01:45:24.026         : en:01:45:24.026






                                                                  
                                                                                                                                                                                                                                                                                 
530edbc63a7a9183327fc7b5fd245dca.torrent (18.88 KB, 下载次数: 0)

回复

使用道具 举报

小黑屋|百度云资源论坛

本网站所有资源来自网络,如无意中侵犯了您的权益,请发邮件至 [email protected],立即清除相关链接

GMT+8, 2021-12-7 20:47 , Processed in 0.116705 second(s), 30 queries .

Powered by Discuz! X3.2

© 2001-2013 Comsenz Inc.

快速回复 返回顶部 返回列表