百度云资源论坛

 找回密码
 立即注册
搜索

爱的后事/當愛離開時 After.Love.2020.REPACK.720p.BluRay.x264-ORBS 2.65GB

[复制链接]
admin 发表于 2021-10-1 18:36:23 | 显示全部楼层 |阅读模式
爱的后事/當愛離開時 After.Love.2020.REPACK.720p.BluRay.x264-ORBS 2.65GB                                                                                                                                                                              -->
帖子完整标题:爱的后事/當愛離開時 After.Love.2020.REPACK.720p.BluRay.x264-ORBS 2.65GB





◎译  名 爱的后事/當愛離開時(台)
◎片  名 After Love
◎年  代 2020
◎产  地 英国
◎类  别 剧情
◎语  言 英语,法语,阿拉伯语,乌尔都语
◎上映日期 2020-09-11(多伦多电影节) / 2020-10-15(伦敦电影节) / 2021-06-04(英国)
◎豆瓣评分 7.0/10 from 226 users
◎ 
◎片  长 89分钟
◎导  演 阿利姆·汗 Aleem Khan
◎编  剧 阿利姆·汗 Aleem Khan
◎主  演 乔安娜·斯坎伦 Joanna Scanlan
     娜塔莉·理查德 Nathalie Richard
     纳赛尔·米马齐亚 Nasser Memarzia

◎标  签 英国 | 家庭 | 剧情 | 2020 | 法國 | 愛情 | 英國 | 英国电影

◎简  介

  玛莉与丈夫是住在英国的传统穆斯林,恩爱相依四十载,毫无预警之下,丈夫突然离世。曾经他们拥有一个孩子,有过一家三口的日子,如今只剩她孤身一人。伤痛尚未消失,玛莉竟意外发现了陌生女子的照片及暧昧对话纪录。循线前往一海之隔、相距三十四公里远的法国加莱,在那里,她找到了另一个与丈夫同居多年的法国女子,而对方不仅不认得玛莉,甚至不晓得她们共有的男人已不在人世。阴错阳差,玛莉成了对方的帮佣,不仅踏进了对方的小屋,也进入了丈夫的秘密生活。

◎获奖情况

  第33届东京国际电影节 ?(2020)
  东京首映2020(提名) 阿利姆·汗
Video
ID             : 1
Format           : AVC
Format/Info          : Advanced Video Codec
Format profile         :
Format settings        : CABAC / 12 Ref Frames
Format settings, CABAC       : Yes
Format settings, Reference frames  : 12 frames
Codec ID           : V_MPEG4/ISO/AVC
Duration           : 1 h 30 min
Bit rate           : 3 562 kb/s
Width            : 1 280 pixels
Height           : 536 pixels
Display aspect ratio       : 2.40:1
Frame rate mode        : Constant
Frame rate           : 23.976 (24000/1001/189150) FPS
Color space          : YUV
Chroma subsampling       : 4:2:0
Bit depth          : 8 bits
Scan type          : Progressive
Bits/(Pixel*Frame)       : 0.217
Stream size          : 2.24 GiB (85%)
Writing library        : x264 core 164 r3065 ae03d92
Encoding settings        : cabac=1 / ref=12 / deblock=1:-3:-3 / analyse=0x3:0x133 / me=umh / subme=10 / psy=1 / psy_rd=1.20:0.00 / mixed_ref=1 / me_range=24 / chroma_me=1 / trellis=2 / 8x8dct=1 / cqm=0 / deadzone=21,11 / fast_pskip=0 / chroma_qp_offset=-2 / threads=17 / lookahead_threads=2 / sliced_threads=0 / nr=0 / decimate=0 / interlaced=0 / bluray_compat=0 / constrained_intra=0 / bframes=8 / b_pyramid=2 / b_adapt=2 / b_bias=0 / direct=3 / weightb=1 / open_gop=0 / weightp=2 / keyint=250 / keyint_min=23 / scenecut=40 / intra_refresh=0 / rc_lookahead=60 / rc=crf / mbtree=1 / crf=15.0 / qcomp=0.60 / qpmin=0 / qpmax=69 / qpstep=4 / ip_ratio=1.40 / aq=3:0.90
Default            : Yes
Forced           : No
Color range          : Limited
Matrix coefficients        : BT.709

Audio
ID             : 2
Format           : AC-3
Format/Info          : Audio Coding 3
Commercial name        : Dolby Digital
Codec ID           : A_AC3
Duration           : 1 h 30 min
Bit rate mode          : Constant
Bit rate           : 640 kb/s
Channel(s)           : 6 channels
Channel layout         : L R C LFE Ls Rs
Sampling rate          : 48.0 kHz
Frame rate           : 31.250 FPS (1536 SPF)
Compression mode         : Lossy
Stream size          : 413 MiB (15%)
Language           : English
Service kind         : Complete Main
Default            : Yes
Forced           : No

Text #1
ID             : 3
Format           : UTF-8
Codec ID           : S_TEXT/UTF8
Codec ID/Info          : UTF-8 Plain Text
Duration           : 1 h 19 min
Bit rate           : 7 b/s
Count of elements        : 181
Stream size          : 4.35 KiB (0%)
Title            : English (Forced)
Language           : English
Default            : Yes
Forced           : Yes

Text #2
ID             : 4
Format           : UTF-8
Codec ID           : S_TEXT/UTF8
Codec ID/Info          : UTF-8 Plain Text
Duration           : 1 h 24 min
Bit rate           : 34 b/s
Count of elements        : 796
Stream size          : 21.6 KiB (0%)
Title            : English (SDH)
Language           : English
Default            : No
Forced           : No

Text #3
ID             : 5
Format           : UTF-8
Codec ID           : S_TEXT/UTF8
Codec ID/Info          : UTF-8 Plain Text
Duration           : 1 h 22 min
Bit rate           : 25 b/s
Count of elements        : 587
Stream size          : 15.2 KiB (0%)
Title            : English
Language           : English
Default            : No
Forced           : No

Text #4
ID             : 6
Format           : PGS
Muxing mode          : zlib
Codec ID           : S_HDMV/PGS
Codec ID/Info          : Picture based subtitle format used on BDs/HD-DVDs
Duration           : 1 h 24 min
Bit rate           : 19.9 kb/s
Count of elements        : 1592
Stream size          : 12.0 MiB (0%)
Title            : SDH
Language           : English
Default            : No
Forced           : No

Text #5
ID             : 7
Format           : PGS
Muxing mode          : zlib
Codec ID           : S_HDMV/PGS
Codec ID/Info          : Picture based subtitle format used on BDs/HD-DVDs
Duration           : 1 h 19 min
Bit rate           : 4 187 b/s
Count of elements        : 362
Stream size          : 2.38 MiB (0%)
Language           : English
Default            : No
Forced           : No

Menu
00:00:00.000         : Chapter 01
00:07:23.193         : Chapter 02
00:14:38.711         : Chapter 03
00:19:50.773         : Chapter 04
00:28:36.924         : Chapter 05
00:36:55.547         : Chapter 06
00:44:15.486         : Chapter 07
00:53:19.196         : Chapter 08
00:59:05.417         : Chapter 09
01:06:21.186         : Chapter 10
01:12:59.083         : Chapter 11
01:23:15.866         : Chapter 12






                                                                  
                                                                                                                                                                                                                                                                                 
a9d3b2ca915c29b372cd642bf6d2b303.torrent (27.27 KB, 下载次数: 0)

回复

使用道具 举报

小黑屋|百度云资源论坛

本网站所有资源来自网络,如无意中侵犯了您的权益,请发邮件至 [email protected],立即清除相关链接

GMT+8, 2021-12-7 22:26 , Processed in 0.101519 second(s), 30 queries .

Powered by Discuz! X3.2

© 2001-2013 Comsenz Inc.

快速回复 返回顶部 返回列表