百度云资源论坛

 找回密码
 立即注册
搜索

火海情涛 In.Harms.Way.1965.720p.BluRay.x264-VETO 11.46GB

[复制链接]
admin 发表于 2021-10-2 18:49:22 | 显示全部楼层 |阅读模式
火海情涛 In.Harms.Way.1965.720p.BluRay.x264-VETO 11.46GB                                                                                                                                                                                                                                                                    -->
帖子完整标题:火海情涛 In.Harms.Way.1965.720p.BluRay.x264-VETO 11.46GB





◎译  名 火海情涛/Première Victoire
◎片  名 In Harm's Way
◎年  代 1965
◎产  地 美国
◎类  别 剧情 / 战争
◎语  言 英语,法语
◎上映日期 1965-04-06(美国)
◎豆瓣评分 7.0/10 from 126 users
◎ 
◎片  长 165 分钟
◎导  演 奥托·普雷明格 Otto Preminger
◎编  剧 温德尔·梅斯 Wendell Mayes / 詹姆斯·巴西特 James Bassett
◎主  演 约翰·韦恩 John Wayne
     柯克·道格拉斯 Kirk Douglas
     帕德里夏·妮尔 Patricia Neal
     达纳·安德鲁斯 Dana Andrews
     乔治·肯尼迪 George Kennedy
     亨利·方达 Henry Fonda
     杰瑞·高德史密斯 Jerry Goldsmith
     Yankee Chang Yankee Chang
     吉尔·哈沃什 Jill Haworth
     Christian Haren Christian Haren
     Richard LePore Richard LePore
     帕特里克·奥尼尔 Patrick O'Neal
     Stewart Moss Stewart Moss
     Chet Stratton Chet Stratton
     Soo Yong Soo Yong
     布鲁斯·卡伯特 Bruce Cabot
     休·欧布莱恩 Hugh O'Brian
     多尔特·克拉克 Dort Clark
     托德·安德鲁斯 Tod Andrews
     拉里·哈格曼 Larry Hagman
     凯勒·欧康纳 Carroll O'Connor
     芭芭拉·布薛特 Barbara Bouchet
     汤姆·特莱昂 Tom Tryon
     宝拉·普林蒂丝 Paula Prentiss
     克里斯托弗·乔治 Christopher George
     法兰奇·汤恩 Franchot Tone
     布兰登·德怀德 Brandon De Wilde
     斯利姆·佩金斯 Slim Pickens
     奥托·普雷明格 Otto Preminger
     布吉斯·梅迪斯 Burgess Meredith
     詹姆斯·米楚姆 James Mitchum
     斯坦利·霍洛威 Stanley Holloway

◎标  签 美国 | 战争 | 二战 | 约翰.韦恩 | 奥托·普雷明格 | 剧情 | Otto_Preminger | 1965

◎简  介

  影片《火海情涛》由罗克韦尔·托里(约翰·韦恩 饰)队长和指挥员保罗·埃丁顿(柯克·道格拉斯 饰)二人展开,他们是被日本攻击后珍珠港海军的幸存者,他们努力修复战舰准备报复。与此同时,托里与护士玛吉·海恩斯(帕德里夏·妮尔 饰)正在热恋中。并且希望恢复与他疏远的儿子杰里迈亚(Brandon De Wilde 饰):一名年轻的海军军官的关系。影片精彩而真实的呈现了战争的情况,并且荣获第38届奥斯卡金像奖:黑白片最佳摄影提名。

◎获奖情况

  第38届奥斯卡金像奖 ?(1966)
  黑白片最佳摄影(提名) 洛亚尔·格里格斯
Video
ID             : 1
Format           : AVC
Format/Info          : Advanced Video Codec
Format profile         : [email protected]
Format settings        : CABAC / 8 Ref Frames
Format settings, CABAC       : Yes
Format settings, Reference frames  : 8 frames
Codec ID           : V_MPEG4/ISO/AVC
Duration           : 2 h 47 min
Bit rate           : 9 099 kb/s
Width            : 1 280 pixels
Height           : 546 pixels
Display aspect ratio       : 2.35:1
Frame rate mode        : Constant
Frame rate           : 23.976 (24000/1001/189150) FPS
Color space          : YUV
Chroma subsampling       : 4:2:0
Bit depth          : 8 bits
Scan type          : Progressive
Bits/(Pixel*Frame)       : 0.543
Stream size          : 10.6 GiB (93%)
Writing library        : x264 core 164 r3065 ae03d92
Encoding settings        : cabac=1 / ref=8 / deblock=1:-3:-3 / analyse=0x3:0x133 / me=umh / subme=9 / psy=1 / psy_rd=1.00:0.00 / mixed_ref=1 / me_range=16 / chroma_me=1 / trellis=2 / 8x8dct=1 / cqm=0 / deadzone=21,11 / fast_pskip=0 / chroma_qp_offset=-2 / threads=36 / lookahead_threads=3 / sliced_threads=0 / nr=0 / decimate=0 / interlaced=0 / bluray_compat=0 / constrained_intra=0 / bframes=3 / b_pyramid=2 / b_adapt=2 / b_bias=0 / direct=3 / weightb=1 / open_gop=0 / weightp=2 / keyint=250 / keyint_min=23 / scenecut=40 / intra_refresh=0 / rc=crf / mbtree=0 / crf=16.0 / qcomp=0.60 / qpmin=0 / qpmax=69 / qpstep=4 / ip_ratio=1.40 / pb_ratio=1.30 / aq=3:0.70
Language           : English
Default            : Yes
Forced           : No
Color range          : Limited
Matrix coefficients        : BT.709

Audio
ID             : 2
Format           : AC-3
Format/Info          : Audio Coding 3
Commercial name        : Dolby Digital
Codec ID           : A_AC3
Duration           : 2 h 47 min
Bit rate mode          : Constant
Bit rate           : 640 kb/s
Channel(s)           : 6 channels
Channel layout         : L R C LFE Ls Rs
Sampling rate          : 48.0 kHz
Frame rate           : 31.250 FPS (1536 SPF)
Compression mode         : Lossy
Stream size          : 765 MiB (7%)
Language           : English
Service kind         : Complete Main
Default            : Yes
Forced           : No

Text #1
ID             : 3
Format           : UTF-8
Codec ID           : S_TEXT/UTF8
Codec ID/Info          : UTF-8 Plain Text
Duration           : 2 h 42 min
Bit rate           : 60 b/s
Count of elements        : 1790
Stream size          : 71.8 KiB (0%)
Title            : English (SRT)
Language           : English
Default            : No
Forced           : No

Text #2
ID             : 4
Format           : UTF-8
Codec ID           : S_TEXT/UTF8
Codec ID/Info          : UTF-8 Plain Text
Duration           : 2 h 43 min
Bit rate           : 62 b/s
Count of elements        : 2183
Stream size          : 75.0 KiB (0%)
Title            : English (SDH SRT)
Language           : English
Default            : No
Forced           : No

Text #3
ID             : 5
Format           : PGS
Muxing mode          : zlib
Codec ID           : S_HDMV/PGS
Codec ID/Info          : Picture based subtitle format used on BDs/HD-DVDs
Duration           : 2 h 42 min
Bit rate           : 40.5 kb/s
Count of elements        : 3580
Stream size          : 47.2 MiB (0%)
Title            : English
Language           : English
Default            : No
Forced           : No

Text #4
ID             : 6
Format           : PGS
Muxing mode          : zlib
Codec ID           : S_HDMV/PGS
Codec ID/Info          : Picture based subtitle format used on BDs/HD-DVDs
Duration           : 2 h 43 min
Bit rate           : 42.8 kb/s
Count of elements        : 4366
Stream size          : 50.2 MiB (0%)
Title            : English (SDH)
Language           : English
Default            : No
Forced           : No

Text #5
ID             : 7
Format           : PGS
Muxing mode          : zlib
Codec ID           : S_HDMV/PGS
Codec ID/Info          : Picture based subtitle format used on BDs/HD-DVDs
Duration           : 2 h 44 min
Bit rate           : 36.4 kb/s
Count of elements        : 3076
Stream size          : 42.8 MiB (0%)
Title            : German
Language           : German
Default            : No
Forced           : No

Text #6
ID             : 8
Format           : PGS
Muxing mode          : zlib
Codec ID           : S_HDMV/PGS
Codec ID/Info          : Picture based subtitle format used on BDs/HD-DVDs
Duration           : 1 h 51 min
Bit rate           : 380 b/s
Count of elements        : 24
Stream size          : 312 KiB (0%)
Title            : German (Forced)
Language           : German
Default            : No
Forced           : No

Text #7
ID             : 9
Format           : PGS
Muxing mode          : zlib
Codec ID           : S_HDMV/PGS
Codec ID/Info          : Picture based subtitle format used on BDs/HD-DVDs
Duration           : 2 h 44 min
Bit rate           : 32.4 kb/s
Count of elements        : 3042
Stream size          : 38.0 MiB (0%)
Title            : French
Language           : French
Default            : No
Forced           : No

Text #8
ID             : 10
Format           : PGS
Muxing mode          : zlib
Codec ID           : S_HDMV/PGS
Codec ID/Info          : Picture based subtitle format used on BDs/HD-DVDs
Duration           : 1 h 51 min
Bit rate           : 376 b/s
Count of elements        : 22
Stream size          : 309 KiB (0%)
Title            : French (Forced)
Language           : French
Default            : No
Forced           : No

Menu
00:00:00.000         : Chapter 01
00:05:37.837         : Chapter 02
00:09:38.661         : Chapter 03
00:17:44.438         : Chapter 04
00:29:13.919         : Chapter 05
00:37:32.542         : Chapter 06
00:45:34.231         : Chapter 07
00:49:59.413         : Chapter 08
01:04:10.930         : Chapter 09
01:08:43.286         : Chapter 10
01:11:51.724         : Chapter 11
01:15:50.254         : Chapter 12
01:25:23.869         : Chapter 13
01:34:27.412         : Chapter 14
01:45:26.946         : Chapter 15
01:48:36.343         : Chapter 16
01:52:00.130         : Chapter 17
01:57:43.473         : Chapter 18
02:02:41.688         : Chapter 19
02:05:32.066         : Chapter 20
02:21:56.133         : Chapter 21
02:32:04.782         : Chapter 22
02:39:38.861         : Chapter 23
02:44:18.182         : Chapter 24






                                                                                                   
                                                                                                                                                                                                                                                                                                                                                                                                                           
92a568a66e02ae7c46ab05fc191c92db.torrent (15.05 KB, 下载次数: 0)

回复

使用道具 举报

小黑屋|百度云资源论坛

本网站所有资源来自网络,如无意中侵犯了您的权益,请发邮件至 [email protected],立即清除相关链接

GMT+8, 2021-12-7 21:11 , Processed in 0.100277 second(s), 26 queries .

Powered by Discuz! X3.2

© 2001-2013 Comsenz Inc.

快速回复 返回顶部 返回列表