百度云资源论坛

 找回密码
 立即注册
搜索

伴我闖天涯 Wild.Search.1989.720p.BluRay.x264-BiPOLAR 7.98GB

[复制链接]
admin 发表于 2021-10-3 18:59:57 | 显示全部楼层 |阅读模式
伴我闖天涯 Wild.Search.1989.720p.BluRay.x264-BiPOLAR 7.98GB                                                                                                                                                                              -->
帖子完整标题:伴我闖天涯 Wild.Search.1989.720p.BluRay.x264-BiPOLAR 7.98GB




◎译  名 伴我闯天涯/Wild Search
◎片  名 伴我闖天涯
◎年  代 1989
◎产  地 中国香港
◎类  别 剧情 / 动作 / 爱情 / 惊悚
◎语  言 粤语,汉语普通话
◎上映日期 1989-06-03(中国香港)
◎豆瓣评分 7.3/10 from 3893 users
◎ 
◎片  长 98 分钟
◎导  演 林岭东 Ringo Lam
◎编  剧 南燕 Yin Nam
◎主  演 周润发 Yun-Fat Chow
     钟楚红 Cherie Chung
     张耀扬 Roy Cheung
     秦沛 Paul Chun
     谷峰 Feng Ku
     刘江 Kong Lau
     黄光亮 Kwong Leung Wong
     吴志雄 Chi Hung Ng
     金燕玲 Elaine Jin
     尹扬明 Yeung Ming Wan
     姚文基 Man-kei Yiu
     罗树琪 Shu-Kei Law
     霍瑞华 Terrence Fok Shui-Wa
     陈卓欣 Chan Cheuk Yan
     何添 Tim Ho
     良鸣 Ming Leung

◎标  签 周润发 | 钟楚红 | 香港 | 香港电影 | 林岭东 | 爱情 | 警匪 | 1989

◎简  介

  警察阿猫(周润发 饰)于枪枝交易现场发现了一具女尸,跟一个小女孩加加。为了能顺利破案,他找到了死者妹妹阿雪(钟楚红 饰),刚开始阿雪对阿猫有莫明的恐惧,拒绝配合阿猫的工作,但后来见阿猫对加加的细心照顾,慢慢对他有了好感。此时阿雪的前夫阿良回来要求阿雪与他复婚,因为阿雪已经爱上了阿猫,便拒绝了阿良的要求。 一天,阿猫遇到了头晕军火的匪徒,双方激战后阿猫逮捕了他们,受了重伤的阿猫幸好得到了阿雪的照顾,两人感情加深。阿良竟然住进了阿雪的家里,偷运军火的人也盯上了阿猫。刚到阿雪家,阿猫便受到了阿良的袭击,两人打斗之时,暴徒也追赶了上来……

◎获奖情况

  第26届台北金马影展 ?(1989)
  金马奖最佳剧情片(提名)
  金马奖最佳女主角(提名) 钟楚红
  金马奖最佳女配角(提名) 陈卓欣
Video
ID             : 1
Format           : AVC
Format/Info          : Advanced Video Codec
Format profile         :
Format settings        : CABAC / 9 Ref Frames
Format settings, CABAC       : Yes
Format settings, Reference frames  : 9 frames
Codec ID           : V_MPEG4/ISO/AVC
Duration           : 1 h 39 min
Bit rate           : 9 992 kb/s
Width            : 1 280 pixels
Height           : 692 pixels
Display aspect ratio       : 1.85:1
Frame rate mode        : Constant
Frame rate           : 23.976 (24000/1001/189150) FPS
Color space          : YUV
Chroma subsampling       : 4:2:0
Bit depth          : 8 bits
Scan type          : Progressive
Bits/(Pixel*Frame)       : 0.471
Stream size          : 6.92 GiB (87%)
Writing library        : x264 core 164 r3065 ae03d92
Encoding settings        : cabac=1 / ref=9 / deblock=1:-3:-3 / analyse=0x3:0x133 / me=umh / subme=10 / psy=1 / psy_rd=1.00:0.15 / mixed_ref=1 / me_range=24 / chroma_me=1 / trellis=2 / 8x8dct=1 / cqm=0 / deadzone=21,11 / fast_pskip=1 / chroma_qp_offset=-3 / threads=18 / lookahead_threads=3 / sliced_threads=0 / nr=0 / decimate=1 / interlaced=0 / bluray_compat=0 / constrained_intra=0 / bframes=8 / b_pyramid=2 / b_adapt=2 / b_bias=0 / direct=3 / weightb=1 / open_gop=0 / weightp=2 / keyint=250 / keyint_min=23 / scenecut=40 / intra_refresh=0 / rc_lookahead=60 / rc=crf / mbtree=1 / crf=19.0 / qcomp=0.60 / qpmin=0 / qpmax=69 / qpstep=4 / ip_ratio=1.40 / aq=3:0.50
Language           : English
Default            : Yes
Forced           : No
Color range          : Limited
Matrix coefficients        : BT.709

Audio #1
ID             : 2
Format           : FLAC
Format/Info          : Free Lossless Audio Codec
Codec ID           : A_FLAC
Duration           : 1 h 39 min
Bit rate mode          : Variable
Bit rate           : 720 kb/s
Channel(s)           : 1 channel
Channel layout         : C
Sampling rate          : 48.0 kHz
Frame rate           : 11.719 FPS (4096 SPF)
Bit depth          : 24 bits
Compression mode         : Lossless
Stream size          : 511 MiB (6%)
Title            : Cantonese
Writing library        : libFLAC 1.2.1 (UTC 2007-09-17)
Language           : Chinese
Default            : Yes
Forced           : No

Audio #2
ID             : 3
Format           : FLAC
Format/Info          : Free Lossless Audio Codec
Codec ID           : A_FLAC
Duration           : 1 h 39 min
Bit rate mode          : Variable
Bit rate           : 674 kb/s
Channel(s)           : 1 channel
Channel layout         : C
Sampling rate          : 48.0 kHz
Frame rate           : 11.719 FPS (4096 SPF)
Bit depth          : 24 bits
Compression mode         : Lossless
Stream size          : 478 MiB (6%)
Title            : English
Writing library        : libFLAC 1.2.1 (UTC 2007-09-17)
Language           : English
Default            : No
Forced           : No

Audio #3
ID             : 4
Format           : AAC LC
Format/Info          : Advanced Audio Codec Low Complexity
Codec ID           : A_AAC-2
Duration           : 1 h 39 min
Bit rate           : 116 kb/s
Channel(s)           : 2 channels
Channel layout         : L R
Sampling rate          : 48.0 kHz
Frame rate           : 46.875 FPS (1024 SPF)
Compression mode         : Lossy
Delay relative to video      : 9 ms
Stream size          : 82.3 MiB (1%)
Title            : English Commentary by Frank Djeng
Language           : English
Default            : No
Forced           : No

Text #1
ID             : 5
Format           : UTF-8
Codec ID           : S_TEXT/UTF8
Codec ID/Info          : UTF-8 Plain Text
Duration           : 1 h 36 min
Bit rate           : 53 b/s
Count of elements        : 1230
Stream size          : 37.6 KiB (0%)
Title            : English
Language           : English
Default            : Yes
Forced           : Yes

Text #2
ID             : 6
Format           : PGS
Muxing mode          : zlib
Codec ID           : S_HDMV/PGS
Codec ID/Info          : Picture based subtitle format used on BDs/HD-DVDs
Duration           : 1 h 36 min
Bit rate           : 16.2 kb/s
Count of elements        : 2434
Stream size          : 11.2 MiB (0%)
Title            : English
Language           : English
Default            : No
Forced           : No

Menu
00:00:00.000         : en:00:00:00.000
00:09:13.595         : en:00:09:13.595
00:21:03.095         : en:00:21:03.095
00:31:09.701         : en:00:31:09.701
00:40:33.389         : en:00:40:33.389
00:49:45.149         : en:00:49:45.149
01:00:45.517         : en:01:00:45.517
01:11:57.104         : en:01:11:57.104
01:22:25.482         : en:01:22:25.482
01:30:05.400         : en:01:30:05.400





                                                                  
                                                                                                                                                                                                                                                                                 
38a31be6177f6b312472f679a9576e0b.torrent (20.66 KB, 下载次数: 0)

回复

使用道具 举报

小黑屋|百度云资源论坛

本网站所有资源来自网络,如无意中侵犯了您的权益,请发邮件至 [email protected],立即清除相关链接

GMT+8, 2021-12-7 22:43 , Processed in 0.073872 second(s), 26 queries .

Powered by Discuz! X3.2

© 2001-2013 Comsenz Inc.

快速回复 返回顶部 返回列表