百度云资源论坛

 找回密码
 立即注册
搜索

[BD-4K] 实习生/见习冇限耆 The.Intern.2015.2160p.WEB-DL.DTS-HD.MA.5.1.DV.MKV.x265-DVSUX 2 ...

[复制链接]
admin 发表于 2021-10-7 16:05:48 | 显示全部楼层 |阅读模式
实习生/见习冇限耆 The.Intern.2015.2160p.WEB-DL.DTS-HD.MA.5.1.DV.MKV.x265-DVSUX 24.00GB                                                                                                                                                                              -->
帖子完整标题:实习生/见习冇限耆 The.Intern.2015.2160p.WEB-DL.DTS-HD.MA.5.1.DV.MKV.x265-DVSUX 24.00GB





◎译  名 实习生/见习冇限耆(港)/高年级实习生(台)
◎片  名 The Intern
◎年  代 2015
◎产  地 美国
◎类  别 喜剧
◎语  言 英语
◎上映日期 2015-09-25(美国)
◎豆瓣评分 8.0/10 from 253893 users
◎ 
◎片  长 121分钟
◎导  演 南希·迈耶斯 Nancy Meyers
◎编  剧 南希·迈耶斯 Nancy Meyers
◎主  演 罗伯特·德尼罗 Robert De Niro
     安妮·海瑟薇 Anne Hathaway
     蕾妮·罗素 Rene Russo
     安德雷斯·霍尔姆 Anders Holm
     乔乔·库什纳 JoJo Kushner
     安德鲁·兰内斯 Andrew Rannells
     亚当·德维尼 Adam DeVine
     扎克·珀尔曼 Zack Pearlman
     杰森·奥利 Jason Orley
     克里斯蒂娜·谢勒 Christina Scherer
     纳特·沃尔夫 Nat Wolff
     琳达·拉文 Linda Lavin
     西利亚·维斯顿 Celia Weston
     史蒂夫·维诺维奇 Steve Vinovich
     玛丽·凯·普莱斯 Mary Kay Place
     德瑞娜·德尼罗 Drena De Niro
     克里斯蒂娜·布鲁卡托 Christina Brucato
     C·J·威尔逊 C.J.Wilson
     瓦莉斯·柯里-伍德 Wallis Currie-Wood
     莫莉·伯纳德 Molly Bernard
     西德尼·莫顿 Sydney Morton
     利兹·霍坦 Liz Holtan
     马克斯·埃森 Max von Essen
     肖恩·克莱尔 Sean Kleier
     埃利奥特·维拉尔 Elliot Villar
     迈克尔·曼 Michael Mann
     凯勒布·朗 Cayleb Long
     瑞德·斯科特 Reid Scott
     Erin Mackey Erin Mackey
     彼得·瓦克 Peter Vack
     克里斯汀·伊万格丽斯塔 Christine Evangelista
     史蒂文·韦斯 Steven Weisz

◎标  签 温情 | 美国 | 职场 | 成长 | 励志 | 喜剧 | 女性 | 剧情

◎简  介

  年近七十的本(罗伯特·德尼罗 Robert De Niro 饰)曾经是一位精明强干,事业有成的商人,最终,他还是和大部分老年人一样开始了平淡的退休生活。本对忙碌而又充实的过去无比怀念,孤独与内心里蠢蠢欲动的渴望让他做出了重回职场的决定,成为了年轻的朱尔斯(安妮·海瑟薇 Anne Hathaway 饰)手下的一名小小员工。
  
  朱利安年纪虽轻却是一家著名时尚购物网站的创办人,为了事业,她牺牲了自己全部的业余时间和感情生活,这份事业带给了朱利安荣耀,却也成为了她肩上沉重的负担,更糟的是,公司董事会已经开始怀疑,朱利安是否能够胜任她目前的职位了。起初,朱利安并没有将年迈又落伍的本放在眼里,然而,随着时间的推移,这位慈祥的长者渐渐成为了她生活中最真挚的友人。

◎获奖情况

  第21届美国评论家选择电影奖 ?(2016)
  喜剧片最佳男主角(提名) 罗伯特·德尼罗
  
  第6届豆瓣电影鑫像奖 ?(2016)
  鑫豆单元最佳喜剧片(提名)
Video
ID             : 1
Format           : HEVC
Format/Info          : High Efficiency Video Coding
Format profile         : Main @High
HDR format           : Dolby Vision, Version 1.0, dvhe.05.06, BL+RPU
Codec ID           : V_MPEGH/ISO/HEVC
Duration           : 2 h 1 min
Bit rate           : 24.5 Mb/s
Width            : 3 840 pixels
Height           : 2 160 pixels
Display aspect ratio       : 16:9
Frame rate mode        : Constant
Frame rate           : 23.976 (24000/1001/189150) FPS
Color space          : YUV
Chroma subsampling       : 4:2:0
Bit depth          : 10 bits
Bits/(Pixel*Frame)       : 0.123
Stream size          : 20.8 GiB (87%)
Default            : Yes
Forced           : No

Audio #1
ID             : 2
ID in the original source medium   : 4352 (0x1100)
Format           : DTS XLL
Format/Info          : Digital Theater Systems
Commercial name        : DTS-HD Master Audio
Codec ID           : A_DTS
Duration           : 2 h 1 min
Bit rate mode          : Variable
Bit rate           : 3 337 kb/s
Channel(s)           : 6 channels
Channel layout         : C L R Ls Rs LFE
Sampling rate          : 48.0 kHz
Frame rate           : 93.750 FPS (512 SPF)
Bit depth          : 24 bits
Compression mode         : Lossless
Delay relative to video      : 1 ms
Stream size          : 2.83 GiB (12%)
Title            : DTS-HD MA 5.1
Language           : English
Default            : Yes
Forced           : No
Original source medium       : Blu-ray

Audio #2
ID             : 3
Format           : AC-3
Format/Info          : Audio Coding 3
Commercial name        : Dolby Digital
Codec ID           : A_AC3
Duration           : 2 h 1 min
Bit rate mode          : Constant
Bit rate           : 384 kb/s
Channel(s)           : 6 channels
Channel layout         : L R C LFE Ls Rs
Sampling rate          : 48.0 kHz
Frame rate           : 31.250 FPS (1536 SPF)
Compression mode         : Lossy
Stream size          : 334 MiB (1%)
Language           : English
Service kind         : Complete Main
Default            : Yes
Forced           : No

Text #1
ID             : 4
Format           : UTF-8
Codec ID           : S_TEXT/UTF8
Codec ID/Info          : UTF-8 Plain Text
Duration           : 2 h 0 min
Bit rate           : 85 b/s
Count of elements        : 2500
Stream size          : 75.1 KiB (0%)
Language           : English
Default            : Yes
Forced           : No

Text #2
ID             : 5
Format           : UTF-8
Codec ID           : S_TEXT/UTF8
Codec ID/Info          : UTF-8 Plain Text
Duration           : 2 h 0 min
Bit rate           : 89 b/s
Count of elements        : 2601
Stream size          : 78.4 KiB (0%)
Title            : SDH
Language           : English
Default            : No
Forced           : No

Text #3
ID             : 6
Format           : UTF-8
Codec ID           : S_TEXT/UTF8
Codec ID/Info          : UTF-8 Plain Text
Duration           : 1 h 55 min
Bit rate           : 107 b/s
Count of elements        : 1996
Stream size          : 90.5 KiB (0%)
Language           : Arabic
Default            : No
Forced           : No

Text #4
ID             : 7
Format           : UTF-8
Codec ID           : S_TEXT/UTF8
Codec ID/Info          : UTF-8 Plain Text
Duration           : 1 h 55 min
Bit rate           : 120 b/s
Count of elements        : 1721
Stream size          : 102 KiB (0%)
Language           : Bulgarian
Default            : No
Forced           : No

Text #5
ID             : 8
Format           : UTF-8
Codec ID           : S_TEXT/UTF8
Codec ID/Info          : UTF-8 Plain Text
Duration           : 1 h 55 min
Bit rate           : 67 b/s
Count of elements        : 2426
Stream size          : 57.0 KiB (0%)
Title            : Simplified
Language           : Chinese
Default            : No
Forced           : No

Text #6
ID             : 9
Format           : UTF-8
Codec ID           : S_TEXT/UTF8
Codec ID/Info          : UTF-8 Plain Text
Duration           : 1 h 55 min
Bit rate           : 65 b/s
Count of elements        : 1894
Stream size          : 55.1 KiB (0%)
Title            : Traditional
Language           : Chinese
Default            : No
Forced           : No

Text #7
ID             : 10
Format           : UTF-8
Codec ID           : S_TEXT/UTF8
Codec ID/Info          : UTF-8 Plain Text
Duration           : 1 h 55 min
Bit rate           : 70 b/s
Count of elements        : 1972
Stream size          : 60.1 KiB (0%)
Language           : Czech
Default            : No
Forced           : No

Text #8
ID             : 11
Format           : UTF-8
Codec ID           : S_TEXT/UTF8
Codec ID/Info          : UTF-8 Plain Text
Duration           : 1 h 55 min
Bit rate           : 61 b/s
Count of elements        : 1247
Stream size          : 52.1 KiB (0%)
Language           : Danish
Default            : No
Forced           : No

Text #9
ID             : 12
Format           : UTF-8
Codec ID           : S_TEXT/UTF8
Codec ID/Info          : UTF-8 Plain Text
Duration           : 1 h 55 min
Bit rate           : 87 b/s
Count of elements        : 2495
Stream size          : 73.7 KiB (0%)
Language           : German
Default            : No
Forced           : No

Text #10
ID             : 13
Format           : UTF-8
Codec ID           : S_TEXT/UTF8
Codec ID/Info          : UTF-8 Plain Text
Duration           : 1 h 55 min
Bit rate           : 125 b/s
Count of elements        : 1997
Stream size          : 106 KiB (0%)
Language           : Greek
Default            : No
Forced           : No

Text #11
ID             : 14
Format           : UTF-8
Codec ID           : S_TEXT/UTF8
Codec ID/Info          : UTF-8 Plain Text
Duration           : 1 h 55 min
Bit rate           : 79 b/s
Count of elements        : 1925
Stream size          : 67.2 KiB (0%)
Title            : Latin American
Language           : Spanish
Default            : No
Forced           : No

Text #12
ID             : 15
Format           : UTF-8
Codec ID           : S_TEXT/UTF8
Codec ID/Info          : UTF-8 Plain Text
Duration           : 1 h 55 min
Bit rate           : 72 b/s
Count of elements        : 1952
Stream size          : 61.5 KiB (0%)
Language           : Spanish
Default            : No
Forced           : No

Text #13
ID             : 16
Format           : UTF-8
Codec ID           : S_TEXT/UTF8
Codec ID/Info          : UTF-8 Plain Text
Duration           : 1 h 55 min
Bit rate           : 57 b/s
Count of elements        : 2003
Stream size          : 48.3 KiB (0%)
Language           : Estonian
Default            : No
Forced           : No

Text #14
ID             : 17
Format           : UTF-8
Codec ID           : S_TEXT/UTF8
Codec ID/Info          : UTF-8 Plain Text
Duration           : 1 h 55 min
Bit rate           : 61 b/s
Count of elements        : 1654
Stream size          : 52.1 KiB (0%)
Language           : Finnish
Default            : No
Forced           : No

Text #15
ID             : 18
Format           : UTF-8
Codec ID           : S_TEXT/UTF8
Codec ID/Info          : UTF-8 Plain Text
Duration           : 1 h 55 min
Bit rate           : 64 b/s
Count of elements        : 1921
Stream size          : 54.4 KiB (0%)
Language           : French
Default            : No
Forced           : No

Text #16
ID             : 19
Format           : UTF-8
Codec ID           : S_TEXT/UTF8
Codec ID/Info          : UTF-8 Plain Text
Duration           : 2 h 0 min
Bit rate           : 121 b/s
Count of elements        : 1956
Stream size          : 107 KiB (0%)
Language           : Hebrew
Default            : No
Forced           : No

Text #17
ID             : 20
Format           : UTF-8
Codec ID           : S_TEXT/UTF8
Codec ID/Info          : UTF-8 Plain Text
Duration           : 1 h 55 min
Bit rate           : 82 b/s
Count of elements        : 2417
Stream size          : 70.0 KiB (0%)
Language           : Hungarian
Default            : No
Forced           : No

Text #18
ID             : 21
Format           : UTF-8
Codec ID           : S_TEXT/UTF8
Codec ID/Info          : UTF-8 Plain Text
Duration           : 1 h 55 min
Bit rate           : 62 b/s
Count of elements        : 2316
Stream size          : 52.7 KiB (0%)
Language           : Italian
Default            : No
Forced           : No

Text #19
ID             : 22
Format           : UTF-8
Codec ID           : S_TEXT/UTF8
Codec ID/Info          : UTF-8 Plain Text
Duration           : 1 h 55 min
Bit rate           : 58 b/s
Count of elements        : 1873
Stream size          : 49.3 KiB (0%)
Language           : Japanese
Default            : No
Forced           : No

Text #20
ID             : 23
Format           : UTF-8
Codec ID           : S_TEXT/UTF8
Codec ID/Info          : UTF-8 Plain Text
Duration           : 1 h 55 min
Bit rate           : 91 b/s
Count of elements        : 2426
Stream size          : 77.6 KiB (0%)
Language           : Korean
Default            : No
Forced           : No

Text #21
ID             : 24
Format           : UTF-8
Codec ID           : S_TEXT/UTF8
Codec ID/Info          : UTF-8 Plain Text
Duration           : 1 h 55 min
Bit rate           : 74 b/s
Count of elements        : 1981
Stream size          : 63.1 KiB (0%)
Language           : Lithuanian
Default            : No
Forced           : No

Text #22
ID             : 25
Format           : UTF-8
Codec ID           : S_TEXT/UTF8
Codec ID/Info          : UTF-8 Plain Text
Duration           : 1 h 55 min
Bit rate           : 67 b/s
Count of elements        : 2003
Stream size          : 57.3 KiB (0%)
Language           : Latvian
Default            : No
Forced           : No

Text #23
ID             : 26
Format           : UTF-8
Codec ID           : S_TEXT/UTF8
Codec ID/Info          : UTF-8 Plain Text
Duration           : 1 h 55 min
Bit rate           : 63 b/s
Count of elements        : 1453
Stream size          : 53.2 KiB (0%)
Language           : Dutch
Default            : No
Forced           : No

Text #24
ID             : 27
Format           : UTF-8
Codec ID           : S_TEXT/UTF8
Codec ID/Info          : UTF-8 Plain Text
Duration           : 1 h 55 min
Bit rate           : 68 b/s
Count of elements        : 1452
Stream size          : 58.1 KiB (0%)
Language           : Norwegian Bokmal
Default            : No
Forced           : No

Text #25
ID             : 28
Format           : UTF-8
Codec ID           : S_TEXT/UTF8
Codec ID/Info          : UTF-8 Plain Text
Duration           : 1 h 55 min
Bit rate           : 66 b/s
Count of elements        : 1917
Stream size          : 55.8 KiB (0%)
Language           : Polish
Default            : No
Forced           : No

Text #26
ID             : 29
Format           : UTF-8
Codec ID           : S_TEXT/UTF8
Codec ID/Info          : UTF-8 Plain Text
Duration           : 1 h 55 min
Bit rate           : 81 b/s
Count of elements        : 1938
Stream size          : 68.8 KiB (0%)
Title            : Brazilian
Language           : Portuguese
Default            : No
Forced           : No

Text #27
ID             : 30
Format           : UTF-8
Codec ID           : S_TEXT/UTF8
Codec ID/Info          : UTF-8 Plain Text
Duration           : 1 h 55 min
Bit rate           : 80 b/s
Count of elements        : 1849
Stream size          : 67.9 KiB (0%)
Language           : Portuguese
Default            : No
Forced           : No

Text #28
ID             : 31
Format           : UTF-8
Codec ID           : S_TEXT/UTF8
Codec ID/Info          : UTF-8 Plain Text
Duration           : 1 h 55 min
Bit rate           : 136 b/s
Count of elements        : 2417
Stream size          : 115 KiB (0%)
Language           : Russian
Default            : No
Forced           : No

Text #29
ID             : 32
Format           : UTF-8
Codec ID           : S_TEXT/UTF8
Codec ID/Info          : UTF-8 Plain Text
Duration           : 1 h 55 min
Bit rate           : 68 b/s
Count of elements        : 2417
Stream size          : 57.8 KiB (0%)
Language           : Slovenian
Default            : No
Forced           : No

Text #30
ID             : 33
Format           : UTF-8
Codec ID           : S_TEXT/UTF8
Codec ID/Info          : UTF-8 Plain Text
Duration           : 2 h 0 min
Bit rate           : 66 b/s
Count of elements        : 1434
Stream size          : 58.4 KiB (0%)
Language           : Swedish
Default            : No
Forced           : No

Text #31
ID             : 34
Format           : UTF-8
Codec ID           : S_TEXT/UTF8
Codec ID/Info          : UTF-8 Plain Text
Duration           : 1 h 55 min
Bit rate           : 219 b/s
Count of elements        : 2418
Stream size          : 185 KiB (0%)
Language           : Thai
Default            : No
Forced           : No

Text #32
ID             : 35
Format           : UTF-8
Codec ID           : S_TEXT/UTF8
Codec ID/Info          : UTF-8 Plain Text
Duration           : 2 h 0 min
Bit rate           : 75 b/s
Count of elements        : 1973
Stream size          : 66.5 KiB (0%)
Language           : Turkish
Default            : No
Forced           : No

Text #33
ID             : 36
Format           : UTF-8
Codec ID           : S_TEXT/UTF8
Codec ID/Info          : UTF-8 Plain Text
Duration           : 1 h 55 min
Bit rate           : 68 b/s
Count of elements        : 2417
Stream size          : 57.9 KiB (0%)
Title            : Cantonese
Language           : Chinese
Default            : No
Forced           : No

Menu
00:00:00.000         : Chapter 1
00:09:30.000         : Chapter 2
00:19:54.000         : Chapter 3
00:29:39.000         : Chapter 4
00:30:29.000         : Chapter 5
00:41:17.000         : Chapter 6
00:50:18.000         : Chapter 7
01:00:33.000         : Chapter 8
01:10:18.000         : Chapter 9
01:19:15.000         : Chapter 10
01:30:58.000         : Chapter 11
01:42:48.000         : Chapter 12
01:51:10.000         : Chapter 13
01:56:41.000         : Chapter 14





                                                                  
                                                                                                                                                                                                                                                                                 
5e369f6dc3cd0d070fa4852e2bf85c00.torrent (30.66 KB, 下载次数: 0)

回复

使用道具 举报

小黑屋|百度云资源论坛

本网站所有资源来自网络,如无意中侵犯了您的权益,请发邮件至 [email protected],立即清除相关链接

GMT+8, 2021-12-2 22:11 , Processed in 0.075071 second(s), 27 queries .

Powered by Discuz! X3.2

© 2001-2013 Comsenz Inc.

快速回复 返回顶部 返回列表