百度云资源论坛

 找回密码
 立即注册
搜索

[4K-原盘] 情枭的黎明/卡利托之路 Carlitos.Way.1993.2160p.BluRay.REMUX.HEVC.DTS-X.7.1-FGT 73 ...

[复制链接]
admin 发表于 2021-10-9 17:55:31 | 显示全部楼层 |阅读模式
情枭的黎明/卡利托之路 Carlitos.Way.1993.2160p.BluRay.REMUX.HEVC.DTS-X.7.1-FGT 73.90GB                                                                                                                                                                              -->
帖子完整标题:情枭的黎明/卡利托之路 Carlitos.Way.1993.2160p.BluRay.REMUX.HEVC.DTS-X.7.1-FGT 73.90GB




◎译  名 情枭的黎明/卡利托之路/卡利托的方式/角头风云(台)
◎片  名 Carlito's Way
◎年  代 1993
◎产  地 美国
◎类  别 剧情 / 惊悚 / 犯罪
◎语  言 英语,西班牙语
◎上映日期 1993-11-10
◎豆瓣评分 8.7/10 from 35056 users
◎ 
◎片  长 144 分钟
◎导  演 布莱恩·德·帕尔玛 Brian De Palma
◎编  剧 大卫·凯普 David Koepp
◎主  演 阿尔·帕西诺 Al Pacino
     西恩·潘 Sean Penn
     佩内洛普·安·米勒 Penelope Ann Miller
     约翰·雷吉扎莫 John Leguizamo
     维果·莫腾森 Viggo Mortensen
     詹姆斯·瑞布霍恩 James Rebhorn
     亚德里安·帕斯达 Adrian Pasdar
     路易斯·古兹曼 Luis Guzmán
     英格丽德·罗杰斯 Ingrid Rogers
     Daniel Margotta Daniel Margotta
     约翰·霍伊特 John Hoyt
     Dan Brennan Dan Brennan

◎标  签 阿尔·帕西诺 | 黑帮 | 犯罪 | 美国 | AlPacino | 美国电影 | 1993 | 剧情

◎简  介

  卡利多(阿尔?帕西诺 Al Pacino 饰)因贩毒而被判入狱30年,在他入狱的第五年,律师大卫(西恩?潘 Sean Penn饰)将他从监狱救了出来。卡利多出狱后的理想就是赚够7万5千美元离开这里和还清欠大卫的人情。决心洗心革面的卡利多却摆脱不了命运的捉弄,当他勉为其难地答应表弟作为旁观者参加一次毒品交易,他卷入了一场黑吃黑的勾当。当他保住了毒品后,他从毒贩那里获得了2万5千美元作为酬劳。
  
  卡利多将这笔钱入股到一家名为天堂乐园的夜总会后,他开始寻找他的女人,凯尔。当卡利多找到凯尔后,两人的关系在微妙中回旋。这时,大卫收了一位黑手党首领的钱,答应帮助他的伙伴越狱。于是,大卫找来了卡利多帮忙。虽然凯尔苦苦哀求,为了报恩,卡利多还是答应了去执行这一危险任务……

◎获奖情况

  第51届金球奖 ?(1994)
  电影类最佳男配角(提名) 西恩·潘
  电影类最佳女配角(提名) 佩内洛普·安·米勒
Video
ID             : 1
ID in the original source medium   : 4113 (0x1011)
Format           : HEVC
Format/Info          : High Efficiency Video Coding
Format profile         : Main @High
HDR format           : SMPTE ST 2094 App 4, Version 1, HDR10+ Profile B compatible
Codec ID           : V_MPEGH/ISO/HEVC
Duration           : 2 h 24 min
Bit rate           : 66.5 Mb/s
Width            : 3 840 pixels
Height           : 2 160 pixels
Display aspect ratio       : 16:9
Frame rate mode        : Constant
Frame rate           : 23.976 (24000/1001/189150) FPS
Color space          : YUV
Chroma subsampling       : 4:2:0 (Type 2)
Bit depth          : 10 bits
Bits/(Pixel*Frame)       : 0.334
Stream size          : 66.9 GiB (91%)
Writing library        : ATEME Titan File 3.9.6 (4.9.6.2)  
Language           : English
Default            : No
Forced           : No
Color range          : Limited
Color primaries        : BT.2020
Transfer characteristics     : PQ
Matrix coefficients        : BT.2020 non-constant
Mastering display color primaries  : Display P3
Mastering display luminance    : min: 0.0050 cd/m2, max: 1000 cd/m2
Maximum Content Light Level    : 933 cd/m2
Maximum Frame-Average Light Level  : 84 cd/m2
Original source medium       : Blu-ray

Audio #1
ID             : 2
ID in the original source medium   : 4352 (0x1100)
Format           : DTS XLL X
Format/Info          : Digital Theater Systems
Commercial name        : DTS-HD Master Audio
Codec ID           : A_DTS
Duration           : 2 h 24 min
Bit rate mode          : Variable
Bit rate           : 3 452 kb/s
Channel(s)           : 8 channels
Channel(s)_Original        : Object Based
ChannelLayout_Original       : Object Based
Sampling rate          : 48.0 kHz
Frame rate           : 93.750 FPS (512 SPF)
Bit depth          : 24 bits
Stream size          : 3.47 GiB (5%)
Title            : DTS-X 7.1
Language           : English
Default            : Yes
Forced           : No
Original source medium       : Blu-ray

Audio #2
ID             : 3
Format           : AC-3
Format/Info          : Audio Coding 3
Commercial name        : Dolby Digital
Codec ID           : A_AC3
Duration           : 2 h 24 min
Bit rate mode          : Constant
Bit rate           : 640 kb/s
Channel(s)           : 6 channels
Channel layout         : L R C LFE Ls Rs
Sampling rate          : 48.0 kHz
Frame rate           : 31.250 FPS (1536 SPF)
Compression mode         : Lossy
Stream size          : 659 MiB (1%)
Title            : DD 5.1
Language           : English
Service kind         : Complete Main
Default            : No
Forced           : No

Audio #3
ID             : 4
ID in the original source medium   : 4353 (0x1101)
Format           : DTS
Format/Info          : Digital Theater Systems
Codec ID           : A_DTS
Duration           : 2 h 24 min
Bit rate mode          : Constant
Bit rate           : 768 kb/s
Channel(s)           : 6 channels
Channel layout         : C L R Ls Rs LFE
Sampling rate          : 48.0 kHz
Frame rate           : 93.750 FPS (512 SPF)
Bit depth          : 24 bits
Compression mode         : Lossy
Stream size          : 791 MiB (1%)
Title            : DTS 5.1
Language           : Japanese
Default            : No
Forced           : No
Original source medium       : Blu-ray

Audio #4
ID             : 5
ID in the original source medium   : 4354 (0x1102)
Format           : DTS
Format/Info          : Digital Theater Systems
Codec ID           : A_DTS
Duration           : 2 h 24 min
Bit rate mode          : Constant
Bit rate           : 768 kb/s
Channel(s)           : 6 channels
Channel layout         : C L R Ls Rs LFE
Sampling rate          : 48.0 kHz
Frame rate           : 93.750 FPS (512 SPF)
Bit depth          : 24 bits
Compression mode         : Lossy
Stream size          : 791 MiB (1%)
Title            : DTS 5.1
Language           : French
Default            : No
Forced           : No
Original source medium       : Blu-ray

Audio #5
ID             : 6
ID in the original source medium   : 4355 (0x1103)
Format           : DTS
Format/Info          : Digital Theater Systems
Codec ID           : A_DTS
Duration           : 2 h 24 min
Bit rate mode          : Constant
Bit rate           : 768 kb/s
Channel(s)           : 6 channels
Channel layout         : C L R Ls Rs LFE
Sampling rate          : 48.0 kHz
Frame rate           : 93.750 FPS (512 SPF)
Bit depth          : 24 bits
Compression mode         : Lossy
Stream size          : 791 MiB (1%)
Title            : DTS 5.1
Language           : Spanish
Default            : No
Forced           : No
Original source medium       : Blu-ray

Audio #6
ID             : 7
ID in the original source medium   : 4356 (0x1104)
Format           : AC-3
Format/Info          : Audio Coding 3
Commercial name        : Dolby Digital
Codec ID           : A_AC3
Duration           : 2 h 24 min
Bit rate mode          : Constant
Bit rate           : 448 kb/s
Channel(s)           : 2 channels
Channel layout         : L R
Sampling rate          : 48.0 kHz
Frame rate           : 31.250 FPS (1536 SPF)
Compression mode         : Lossy
Stream size          : 462 MiB (1%)
Title            : DD 2.0
Language           : Thai
Service kind         : Complete Main
Default            : No
Forced           : No
Original source medium       : Blu-ray

Text #1
ID             : 8
Format           : UTF-8
Codec ID           : S_TEXT/UTF8
Codec ID/Info          : UTF-8 Plain Text
Duration           : 2 h 15 min
Bit rate           : 60 b/s
Count of elements        : 1546
Stream size          : 59.8 KiB (0%)
Title            : SRT
Language           : English
Default            : Yes
Forced           : No

Text #2
ID             : 9
ID in the original source medium   : 4768 (0x12A0)
Format           : PGS
Muxing mode          : zlib
Codec ID           : S_HDMV/PGS
Codec ID/Info          : Picture based subtitle format used on BDs/HD-DVDs
Duration           : 2 h 18 min
Bit rate           : 38.2 kb/s
Count of elements        : 3224
Stream size          : 37.8 MiB (0%)
Language           : English
Default            : No
Forced           : No
Original source medium       : Blu-ray

Text #3
ID             : 10
ID in the original source medium   : 4769 (0x12A1)
Format           : PGS
Muxing mode          : zlib
Codec ID           : S_HDMV/PGS
Codec ID/Info          : Picture based subtitle format used on BDs/HD-DVDs
Duration           : 2 h 15 min
Bit rate           : 25.2 kb/s
Count of elements        : 3164
Stream size          : 24.4 MiB (0%)
Language           : Japanese
Default            : No
Forced           : No
Original source medium       : Blu-ray

Text #4
ID             : 11
ID in the original source medium   : 4770 (0x12A2)
Format           : PGS
Muxing mode          : zlib
Codec ID           : S_HDMV/PGS
Codec ID/Info          : Picture based subtitle format used on BDs/HD-DVDs
Duration           : 2 h 20 min
Bit rate           : 34.2 kb/s
Count of elements        : 3122
Stream size          : 34.3 MiB (0%)
Language           : French
Default            : No
Forced           : No
Original source medium       : Blu-ray

Text #5
ID             : 12
ID in the original source medium   : 4771 (0x12A3)
Format           : PGS
Muxing mode          : zlib
Codec ID           : S_HDMV/PGS
Codec ID/Info          : Picture based subtitle format used on BDs/HD-DVDs
Duration           : 2 h 20 min
Bit rate           : 35.4 kb/s
Count of elements        : 3108
Stream size          : 35.5 MiB (0%)
Language           : Spanish
Default            : No
Forced           : No
Original source medium       : Blu-ray

Text #6
ID             : 13
ID in the original source medium   : 4772 (0x12A4)
Format           : PGS
Muxing mode          : zlib
Codec ID           : S_HDMV/PGS
Codec ID/Info          : Picture based subtitle format used on BDs/HD-DVDs
Duration           : 2 h 20 min
Bit rate           : 36.2 kb/s
Count of elements        : 3136
Stream size          : 36.3 MiB (0%)
Language           : Danish
Default            : No
Forced           : No
Original source medium       : Blu-ray

Text #7
ID             : 14
ID in the original source medium   : 4773 (0x12A5)
Format           : PGS
Muxing mode          : zlib
Codec ID           : S_HDMV/PGS
Codec ID/Info          : Picture based subtitle format used on BDs/HD-DVDs
Duration           : 2 h 20 min
Bit rate           : 31.3 kb/s
Count of elements        : 3046
Stream size          : 31.4 MiB (0%)
Language           : Finnish
Default            : No
Forced           : No
Original source medium       : Blu-ray

Text #8
ID             : 15
ID in the original source medium   : 4774 (0x12A6)
Format           : PGS
Muxing mode          : zlib
Codec ID           : S_HDMV/PGS
Codec ID/Info          : Picture based subtitle format used on BDs/HD-DVDs
Duration           : 2 h 20 min
Bit rate           : 33.9 kb/s
Count of elements        : 3112
Stream size          : 34.0 MiB (0%)
Language           : Norwegian
Default            : No
Forced           : No
Original source medium       : Blu-ray

Text #9
ID             : 16
ID in the original source medium   : 4775 (0x12A7)
Format           : PGS
Muxing mode          : zlib
Codec ID           : S_HDMV/PGS
Codec ID/Info          : Picture based subtitle format used on BDs/HD-DVDs
Duration           : 2 h 20 min
Bit rate           : 28.8 kb/s
Count of elements        : 3038
Stream size          : 28.9 MiB (0%)
Language           : Swedish
Default            : No
Forced           : No
Original source medium       : Blu-ray

Text #10
ID             : 17
ID in the original source medium   : 4776 (0x12A8)
Format           : PGS
Muxing mode          : zlib
Codec ID           : S_HDMV/PGS
Codec ID/Info          : Picture based subtitle format used on BDs/HD-DVDs
Duration           : 2 h 20 min
Bit rate           : 31.0 kb/s
Count of elements        : 3552
Stream size          : 31.1 MiB (0%)
Language           : Thai
Default            : No
Forced           : No
Original source medium       : Blu-ray

Text #11
ID             : 18
ID in the original source medium   : 4777 (0x12A9)
Format           : PGS
Muxing mode          : zlib
Codec ID           : S_HDMV/PGS
Codec ID/Info          : Picture based subtitle format used on BDs/HD-DVDs
Duration           : 2 h 20 min
Bit rate           : 26.7 kb/s
Count of elements        : 3134
Stream size          : 26.8 MiB (0%)
Language           : Chinese
Default            : No
Forced           : No
Original source medium       : Blu-ray

Text #12
ID             : 19
ID in the original source medium   : 4778 (0x12AA)
Format           : PGS
Muxing mode          : zlib
Codec ID           : S_HDMV/PGS
Codec ID/Info          : Picture based subtitle format used on BDs/HD-DVDs
Duration           : 2 h 20 min
Bit rate           : 24.9 kb/s
Count of elements        : 3052
Stream size          : 24.9 MiB (0%)
Language           : Chinese
Default            : No
Forced           : No
Original source medium       : Blu-ray

Text #13
ID             : 20
ID in the original source medium   : 4779 (0x12AB)
Format           : PGS
Muxing mode          : zlib
Codec ID           : S_HDMV/PGS
Codec ID/Info          : Picture based subtitle format used on BDs/HD-DVDs
Duration           : 2 h 22 min
Bit rate           : 19.7 kb/s
Count of elements        : 3214
Stream size          : 20.1 MiB (0%)
Language           : Korean
Default            : No
Forced           : No
Original source medium       : Blu-ray

Text #14
ID             : 21
ID in the original source medium   : 4780 (0x12AC)
Format           : PGS
Muxing mode          : zlib
Codec ID           : S_HDMV/PGS
Codec ID/Info          : Picture based subtitle format used on BDs/HD-DVDs
Duration           : 1 h 36 min
Bit rate           : 456 b/s
Count of elements        : 26
Stream size          : 323 KiB (0%)
Title            : FORCED
Language           : English
Default            : No
Forced           : No
Original source medium       : Blu-ray

Text #15
ID             : 22
ID in the original source medium   : 4781 (0x12AD)
Format           : PGS
Muxing mode          : zlib
Codec ID           : S_HDMV/PGS
Codec ID/Info          : Picture based subtitle format used on BDs/HD-DVDs
Duration           : 1 h 38 min
Bit rate           : 92 b/s
Count of elements        : 10
Stream size          : 67.0 KiB (0%)
Title            : FORCED
Language           : Japanese
Default            : No
Forced           : No
Original source medium       : Blu-ray

Text #16
ID             : 23
ID in the original source medium   : 4782 (0x12AE)
Format           : PGS
Muxing mode          : zlib
Codec ID           : S_HDMV/PGS
Codec ID/Info          : Picture based subtitle format used on BDs/HD-DVDs
Duration           : 2 h 18 min
Bit rate           : 288 b/s
Count of elements        : 28
Stream size          : 293 KiB (0%)
Title            : FORCED
Language           : French
Default            : No
Forced           : No
Original source medium       : Blu-ray

Text #17
ID             : 24
ID in the original source medium   : 4783 (0x12AF)
Format           : PGS
Muxing mode          : zlib
Codec ID           : S_HDMV/PGS
Codec ID/Info          : Picture based subtitle format used on BDs/HD-DVDs
Duration           : 2 h 19 min
Bit rate           : 76 b/s
Count of elements        : 10
Stream size          : 78.4 KiB (0%)
Title            : FORCED
Language           : Spanish
Default            : No
Forced           : No
Original source medium       : Blu-ray

Text #18
ID             : 25
ID in the original source medium   : 4784 (0x12B0)
Format           : PGS
Muxing mode          : zlib
Codec ID           : S_HDMV/PGS
Codec ID/Info          : Picture based subtitle format used on BDs/HD-DVDs
Duration           : 2 h 19 min
Bit rate           : 187 b/s
Count of elements        : 38
Stream size          : 192 KiB (0%)
Title            : FORCED
Language           : Thai
Default            : No
Forced           : No
Original source medium       : Blu-ray

Menu
00:00:00.000         : Chapter 01
00:05:03.469         : Chapter 02
00:17:43.312         : Chapter 03
00:27:41.409         : Chapter 04
00:32:02.587         : Chapter 05
00:36:36.527         : Chapter 06
00:45:26.557         : Chapter 07
00:50:38.618         : Chapter 08
00:58:40.517         : Chapter 09
01:03:34.143         : Chapter 10
01:11:44.258         : Chapter 11
01:17:28.101         : Chapter 12
01:24:46.915         : Chapter 13
01:33:48.748         : Chapter 14
01:45:23.025         : Chapter 15
01:52:32.245         : Chapter 16
01:57:40.470         : Chapter 17
02:03:30.986         : Chapter 18
02:14:01.366         : Chapter 19
02:19:06.963         : Chapter 20





                                                                  
                                                                                                                                                                                                                                                                                 
9abcc9c697f7e13c372c83f95c9de51b.torrent (93.01 KB, 下载次数: 0)

回复

使用道具 举报

小黑屋|百度云资源论坛

本网站所有资源来自网络,如无意中侵犯了您的权益,请发邮件至 [email protected],立即清除相关链接

GMT+8, 2021-12-2 22:48 , Processed in 0.092582 second(s), 27 queries .

Powered by Discuz! X3.2

© 2001-2013 Comsenz Inc.

快速回复 返回顶部 返回列表