百度云资源论坛

 找回密码
 立即注册
搜索

生存主义者 The.Survivalist.2021.720p.BluRay.x264.DTS-MT 3.20GB

[复制链接]
admin 发表于 2021-10-13 17:47:17 | 显示全部楼层 |阅读模式
生存主义者 The.Survivalist.2021.720p.BluRay.x264.DTS-MT 3.20GB                                                                                                                                                                              -->
帖子完整标题:生存主义者 The.Survivalist.2021.720p.BluRay.x264.DTS-MT 3.20GB





◎译  名 生存主义者
◎片  名 The Survivalist
◎年  代 2021
◎产  地 美国
◎类  别 动作 / 惊悚
◎语  言 英语
◎上映日期 2021-10-01(美国)
◎豆瓣评分 /10 from 0 users
◎ 
◎片  长 91分钟
◎导  演 强·基耶斯 Jon Keeyes
◎主  演 乔纳森·莱斯·梅耶斯 Jonathan Rhys Meyers
     约翰·马尔科维奇 John Malkovich
     珍娜·莉·格林 Jenna Leigh Green
     露比·莫迪恩 Ruby Modine
     乔尼·奥尔西尼 Jon Orsini
     西蒙·菲利普斯 Simon Phillips
     Charlie Sara Charlie Sara

◎标  签 WK | 2021

◎简  介

  讲述人类文明因疫情爆发而衰落的一年半之后,一位前联邦调查局特工(梅耶斯)被迫保护一名对这种疾病免疫的年轻女性,避免由一个精神病患者(马尔科维奇)带领的危险团伙追捕她,这个心理变态者认为他将利用她来拯救世界。
Video
ID             : 1
Format           : AVC
Format/Info          : Advanced Video Codec
Format profile         :
Format settings        : CABAC / 12 Ref Frames
Format settings, CABAC       : Yes
Format settings, Reference frames  : 12 frames
Codec ID           : V_MPEG4/ISO/AVC
Duration           : 1 h 30 min
Bit rate           : 3 547 kb/s
Width            : 1 280 pixels
Height           : 534 pixels
Display aspect ratio       : 2.40:1
Frame rate mode        : Constant
Frame rate           : 23.976 (24000/1001/189150) FPS
Color space          : YUV
Chroma subsampling       : 4:2:0
Bit depth          : 8 bits
Scan type          : Progressive
Bits/(Pixel*Frame)       : 0.216
Stream size          : 2.24 GiB (70%)
Writing library        : x264 core 157 r2938 2b00a84Mod
Encoding settings        : cabac=1 / ref=12 / deblock=1:-3:-3 / analyse=0x3:0x133 / me=umh / subme=10 / psy=1 / psy_rd=1.05:0.00 / mixed_ref=1 / me_range=32 / chroma_me=1 / trellis=2 / 8x8dct=1 / cqm=0 / deadzone=21,11 / fast_pskip=0 / chroma_qp_offset=-2 / threads=12 / lookahead_threads=2 / sliced_threads=0 / nr=0 / decimate=0 / interlaced=0 / bluray_compat=0 / constrained_intra=0 / bframes=8 / b_pyramid=2 / b_adapt=2 / b_bias=0 / direct=3 / weightb=1 / open_gop=0 / weightp=2 / keyint=250 / keyint_min=24 / scenecut=40 / intra_refresh=0 / rc_lookahead=250 / rc=crf / mbtree=0 / crf=16.8 / qcomp=0.60 / qpmin=0 / qpmax=69 / qpstep=4 / vbv_maxrate=62500 / vbv_bufsize=78125 / crf_max=0.0 / nal_hrd=none / filler=0 / ip_ratio=1.30 / pb_ratio=1.20 / aq=3:0.80
Language           : English
Default            : Yes
Forced           : No
Color range          : Limited
Color primaries        : BT.709
Matrix coefficients        : BT.709

Audio
ID             : 2
Format           : DTS
Format/Info          : Digital Theater Systems
Codec ID           : A_DTS
Duration           : 1 h 30 min
Bit rate mode          : Constant
Bit rate           : 1 509 kb/s
Channel(s)           : 6 channels
Channel layout         : C L R Ls Rs LFE
Sampling rate          : 48.0 kHz
Frame rate           : 93.750 FPS (512 SPF)
Bit depth          : 16 bits
Compression mode         : Lossy
Stream size          : 977 MiB (30%)
Language           : English
Default            : Yes
Forced           : No

Text
ID             : 3
Format           : UTF-8
Codec ID           : S_TEXT/UTF8
Codec ID/Info          : UTF-8 Plain Text
Duration           : 1 h 24 min
Bit rate           : 41 b/s
Count of elements        : 915
Stream size          : 25.7 KiB (0%)
Title            : SRT
Language           : English
Default            : Yes
Forced           : No

Menu
00:00:00.000         : Chapter 01
00:06:47.073         : Chapter 02
00:12:12.899         : Chapter 03
00:16:39.749         : Chapter 04
00:21:54.438         : Chapter 05
00:30:23.905         : Chapter 06
00:34:41.871         : Chapter 07
00:41:03.419         : Chapter 08
00:45:16.797         : Chapter 09
00:51:17.366         : Chapter 10
00:56:53.285         : Chapter 11
01:03:58.126         : Chapter 12
01:07:31.631         : Chapter 13
01:13:23.399         : Chapter 14
01:21:15.162         : Chapter 15
01:25:12.899         : Chapter 16

[/url]

[/url]

[/url]




                                                                  
                                                                                                                                                                                                                                                                                 
6bda323d06965d9fdbfc0692324b4bca.torrent (16.62 KB, 下载次数: 0)

回复

使用道具 举报

小黑屋|百度云资源论坛

本网站所有资源来自网络,如无意中侵犯了您的权益,请发邮件至 [email protected],立即清除相关链接

GMT+8, 2021-12-7 21:28 , Processed in 0.074079 second(s), 26 queries .

Powered by Discuz! X3.2

© 2001-2013 Comsenz Inc.

快速回复 返回顶部 返回列表