百度云资源论坛

 找回密码
 立即注册
搜索

[4K-原盘] 绿衣骑士/绿骑士 The.Green.Knight.2021.2160p.BluRay.REMUX.HEVC.DTS-HD.MA.TrueHD.7 ...

[复制链接]
admin 发表于 2021-10-14 15:53:26 | 显示全部楼层 |阅读模式
绿衣骑士/绿骑士 The.Green.Knight.2021.2160p.BluRay.REMUX.HEVC.DTS-HD.MA.TrueHD.7.1.Atmo                                                                                                                                                                              -->
帖子完整标题:绿衣骑士/绿骑士 The.Green.Knight.2021.2160p.BluRay.REMUX.HEVC.DTS-HD.MA.TrueHD.7.1.Atmos-FGT 70.10GB





◎译  名 绿衣骑士/绿骑士(台)
◎片  名 The Green Knight
◎年  代 2021
◎产  地 爱尔兰,加拿大,美国,英国
◎类  别 剧情 / 奇幻 / 冒险
◎语  言 英语
◎上映日期 2021-07-30(美国)
◎豆瓣评分 6.5/10 from 10163 users
◎ 
◎片  长 130分钟
◎导  演 大卫·洛维 David Lowery
◎编  剧 大卫·洛维 David Lowery
◎主  演 戴夫·帕特尔 Dev Patel
     艾丽西亚·维坎德 Alicia Vikander
     萨莉塔·乔德霍里 Sarita Choudhury
     拉尔夫·伊内森 Ralph Ineson
     西恩·哈里斯 Sean Harris
     乔尔·埃哲顿 Joel Edgerton
     巴里·基奥恩 Barry Keoghan
     艾琳·凯利曼 Erin Kellyman
     雅典娜·弗里泽尔 Atheena Frizzell
     尼塔·米什拉 Nita Mishra
     塔拉·麦克唐纳 Tara McDonagh
     凯特·迪基 Kate Dickie
     阿奈·里佐 Ana?s Rizzo
     克里斯·麦克哈利姆 Chris McHallem
     乔·安德森 Joe Anderson
     Brendan Conroy Brendan Conroy
     唐查·克劳利 Donncha Crowley
     安东尼·莫里斯 Anthony Morris
     诺埃尔·布朗 Noelle Brown

◎标  签 奇幻 | 美国 | 2021 | 剧情 | A24 | 惊悚 | 欧美 | 古装

◎简  介

  影片根据故事《高文爵士与绿衣骑士》改编,讲述亚瑟王在自己的宫廷里举行宴会。一位绿衣骑士前来向圆桌骑士挑战:有谁敢当场砍下他的头,并让他一年后回敬一斧。高文接受挑战,砍下了绿衣骑士的头。那具依然活着的躯体捡起头颅,回到绿色的教堂。一年以后,高文践约去寻找绿衣骑士。
Video
ID             : 1
ID in the original source medium   : 4113 (0x1011)
Format           : HEVC
Format/Info          : High Efficiency Video Coding
Format profile         : Main @High
HDR format           : Dolby Vision, Version 1.0, dvhe.07.06, BL+EL+RPU, Blu-ray compatible / SMPTE ST 2086, HDR10 compatible
Codec ID           : V_MPEGH/ISO/HEVC
Duration           : 2 h 9 min
Bit rate           : 68.9 Mb/s
Width            : 3 840 pixels
Height           : 2 160 pixels
Display aspect ratio       : 16:9
Frame rate mode        : Constant
Frame rate           : 23.976 (24000/1001/189150) FPS
Color space          : YUV
Chroma subsampling       : 4:2:0 (Type 2)
Bit depth          : 10 bits
Bits/(Pixel*Frame)       : 0.346
Stream size          : 62.4 GiB (89%)
Language           : English
Default            : No
Forced           : No
Color range          : Limited
Color primaries        : BT.2020
Transfer characteristics     : PQ
Matrix coefficients        : BT.2020 non-constant
Mastering display color primaries  : BT.2020
Mastering display luminance    : min: 0.0010 cd/m2, max: 1000 cd/m2
Maximum Content Light Level    : 1000 cd/m2
Maximum Frame-Average Light Level  : 588 cd/m2
Original source medium       : Blu-ray

Audio #1
ID             : 2
ID in the original source medium   : 4352 (0x1100)
Format           : MLP FBA 16-ch
Format/Info          : Meridian Lossless Packing FBA with 16-channel presentation
Commercial name        : Dolby TrueHD with Dolby Atmos
Codec ID           : A_TRUEHD
Duration           : 2 h 9 min
Bit rate mode          : Variable
Bit rate           : 3 476 kb/s
Maximum bit rate         : 5 781 kb/s
Channel(s)           : 8 channels
Channel layout         : L R C LFE Ls Rs Lb Rb
Sampling rate          : 48.0 kHz
Frame rate           : 1 200.000 FPS (40 SPF)
Bit depth          : 24 bits
Compression mode         : Lossless
Stream size          : 3.15 GiB (4%)
Title            : TrueHD 7.1 Atmos
Language           : English
Default            : Yes
Forced           : No
Original source medium       : Blu-ray
Number of dynamic objects      : 11
Bed channel count        : 1 channel
Bed channel configuration      : LFE

Audio #2
ID             : 3
Format           : DTS XLL
Format/Info          : Digital Theater Systems
Commercial name        : DTS-HD Master Audio
Codec ID           : A_DTS
Duration           : 2 h 9 min
Bit rate mode          : Variable
Bit rate           : 4 070 kb/s
Channel(s)           : 8 channels
Channel layout         : C L R LFE Lb Rb Lss Rss
Sampling rate          : 48.0 kHz
Frame rate           : 93.750 FPS (512 SPF)
Bit depth          : 24 bits
Compression mode         : Lossless
Stream size          : 3.69 GiB (5%)
Title            : DTS-HD MA 7.1
Language           : English
Default            : No
Forced           : No

Audio #3
ID             : 4
ID in the original source medium   : 4352 (0x1100)
Format           : AC-3
Format/Info          : Audio Coding 3
Commercial name        : Dolby Digital
Format settings        : Dolby Surround EX
Codec ID           : A_AC3
Duration           : 2 h 9 min
Bit rate mode          : Constant
Bit rate           : 640 kb/s
Channel(s)           : 6 channels
Channel layout         : L R C LFE Ls Rs
Sampling rate          : 48.0 kHz
Frame rate           : 31.250 FPS (1536 SPF)
Compression mode         : Lossy
Stream size          : 594 MiB (1%)
Title            : DD 5.1
Language           : English
Service kind         : Complete Main
Default            : No
Forced           : No
Original source medium       : Blu-ray

Audio #4
ID             : 5
ID in the original source medium   : 4353 (0x1101)
Format           : AC-3
Format/Info          : Audio Coding 3
Commercial name        : Dolby Digital
Codec ID           : A_AC3
Duration           : 2 h 9 min
Bit rate mode          : Constant
Bit rate           : 192 kb/s
Channel(s)           : 2 channels
Channel layout         : L R
Sampling rate          : 48.0 kHz
Frame rate           : 31.250 FPS (1536 SPF)
Compression mode         : Lossy
Stream size          : 178 MiB (0%)
Title            : DD 2.0
Language           : English
Service kind         : Complete Main
Default            : No
Forced           : No
Original source medium       : Blu-ray

Text #1
ID             : 6
Format           : UTF-8
Codec ID           : S_TEXT/UTF8
Codec ID/Info          : UTF-8 Plain Text
Duration           : 2 h 5 min
Bit rate           : 21 b/s
Count of elements        : 783
Stream size          : 19.7 KiB (0%)
Title            : SRT
Language           : English
Default            : Yes
Forced           : No

Text #2
ID             : 7
ID in the original source medium   : 4768 (0x12A0)
Format           : PGS
Muxing mode          : zlib
Codec ID           : S_HDMV/PGS
Codec ID/Info          : Picture based subtitle format used on BDs/HD-DVDs
Duration           : 2 h 8 min
Bit rate           : 19.8 kb/s
Count of elements        : 2374
Stream size          : 18.3 MiB (0%)
Language           : English
Default            : No
Forced           : No
Original source medium       : Blu-ray

Text #3
ID             : 8
ID in the original source medium   : 4769 (0x12A1)
Format           : PGS
Muxing mode          : zlib
Codec ID           : S_HDMV/PGS
Codec ID/Info          : Picture based subtitle format used on BDs/HD-DVDs
Duration           : 2 h 9 min
Bit rate           : 12.9 kb/s
Count of elements        : 1506
Stream size          : 11.9 MiB (0%)
Language           : Spanish
Default            : No
Forced           : No
Original source medium       : Blu-ray

Menu
00:00:00.000         : Chapter 01
00:06:55.289         : Chapter 02
00:15:04.445         : Chapter 03
00:25:13.220         : Chapter 04
00:32:26.611         : Chapter 05
00:41:46.545         : Chapter 06
00:48:36.330         : Chapter 07
00:54:25.720         : Chapter 08
01:02:32.623         : Chapter 09
01:09:30.624         : Chapter 10
01:14:43.187         : Chapter 11
01:22:58.974         : Chapter 12
01:30:42.145         : Chapter 13
01:37:10.199         : Chapter 14
01:48:51.691         : Chapter 15
02:00:00.484         : Chapter 16





                                                                  
                                                                                                                                                                                                                                                                                 
504459fa456dea9fc9343f81d2dda90a.torrent (88.31 KB, 下载次数: 0)

回复

使用道具 举报

小黑屋|百度云资源论坛

本网站所有资源来自网络,如无意中侵犯了您的权益,请发邮件至 [email protected],立即清除相关链接

GMT+8, 2021-12-7 21:20 , Processed in 0.109550 second(s), 30 queries .

Powered by Discuz! X3.2

© 2001-2013 Comsenz Inc.

快速回复 返回顶部 返回列表