百度云资源论坛

 找回密码
 立即注册
搜索

折磨 Torment.1944.SWEDISH.1080p.BluRay.x264.FLAC.1.0-HANDJOB 8.28GB

[复制链接]
admin 发表于 2021-10-14 17:55:15 | 显示全部楼层 |阅读模式
折磨 Torment.1944.SWEDISH.1080p.BluRay.x264.FLAC.1.0-HANDJOB 8.28GB                                                                                                                                                                              -->
帖子完整标题:折磨 Torment.1944.SWEDISH.1080p.BluRay.x264.FLAC.1.0-HANDJOB 8.28GB





◎译  名 折磨/Torment/狂乱/狂怒/考验
◎片  名 Hets
◎年  代 1944
◎产  地 瑞典
◎类  别 剧情
◎语  言 瑞典语
◎上映日期 1944-10-02
◎豆瓣评分 7.4/10 from 555 users
◎ 
◎片  长 101 分钟
◎导  演 阿尔夫·斯约堡 Alf Sj?berg
◎编  剧 英格玛·伯格曼 Ingmar Bergman
◎主  演 斯蒂格·贾雷尔 Stig J?rrel
     阿尔夫·切森 Alf Kjellin
     梅·扎特林 Mai Zetterling
     扬·莫兰德 Jan Molander
     Allan Linder Allan Linder
     比耶·马尔姆斯滕 Birger Malmsten
     Richard Lund Richard Lund
     Nils Hultgren Nils Hultgren
     Lennart Nyberg Lennart Nyberg
     Anna Olin Anna Olin
     Anders Nystr?m Anders Nystr?m
     Olav Riégo Olav Riégo
     Arne Ragneborn Arne Ragneborn
     Greta Stave Greta Stave
     Bertil Sohlberg Bertil Sohlberg
     John Zacharias John Zacharias
     Olof Winnerstrand Olof Winnerstrand
     Palle Granditsky Palle Granditsky
     Torsten Hillberg Torsten Hillberg
     古纳尔·布约恩施特兰德 Gunnar Bj?rnstrand
     斯蒂格·奥林 Stig Olin
     英格玛·伯格曼 Ingmar Bergman
     M?rta Arbin M?rta Arbin
     卡尔-奥洛夫·阿尔姆 Carl-Olof Alm
     希尔达·博里斯特伦 Hilda Borgstr?m
     Rolf Bergstr?m Rolf Bergstr?m
     Hugo Bj?rne Hugo Bj?rne
     Bengt Dalunde Bengt Dalunde
     Bengt Carenborg Bengt Carenborg
     Nils Dahlgren Nils Dahlgren
     约斯塔·塞德隆德 G?sta Cederlund
     Curt Edgard Curt Edgard
     Sten Gester Sten Gester
     Gustaf Hedstr?m Gustaf Hedstr?m

◎标  签 瑞典 | 英格玛·伯格曼 | IngmarBergman | 瑞典电影 | 1944 | 伯格曼 | Ingmar_Bergman | 黑白

◎简  介

  中学生埃里克(克吉林)爱上了年轻的贝尔塔,与她共享了初恋的乐趣。但是一个埃里克不认识的男人使他们之间的关系笼罩上了一层阴影。这个男人用性虐待的方式折磨贝尔塔,但埃里克始终不知道这个人的身份。一天埃里克发现贝尔塔死了,她是自杀的。在她的住处,埃里克遇见了他的拉丁语老师( 雅莱尔),此人被他的学生称作“卡里古拉”——历史上一个淫荡、残暴的罗马皇帝的名字。他虽然没有亲手杀死贝尔诺,但正是他促成了她的死亡,他应该对这件事承担责任。由于贝尔塔的死亡,埃里克从一个对他来说毫无希望的爱情中解脱出来。

◎获奖情况

  第8届威尼斯电影节 ?(1947)
  国际奖国际电影大奖(提名) 阿尔夫·斯约堡
Video
ID             : 1
Format           : AVC
Format/Info          : Advanced Video Codec
Format profile         :
Format settings        : CABAC / 5 Ref Frames
Format settings, CABAC       : Yes
Format settings, Reference frames  : 5 frames
Codec ID           : V_MPEG4/ISO/AVC
Duration           : 1 h 41 min
Bit rate           : 11.4 Mb/s
Width            : 1 472 pixels
Height           : 1 080 pixels
Display aspect ratio       : 4:3
Frame rate mode        : Constant
Frame rate           : 24.000 FPS
Color space          : YUV
Chroma subsampling       : 4:2:0
Bit depth          : 8 bits
Scan type          : Progressive
Bits/(Pixel*Frame)       : 0.297
Stream size          : 8.01 GiB (97%)
Writing library        : x264 core 157 r2935 545de2f
Encoding settings        : cabac=1 / ref=5 / deblock=1:-3:-3 / analyse=0x3:0x133 / me=umh / subme=10 / psy=1 / psy_rd=1.00:0.00 / mixed_ref=1 / me_range=32 / chroma_me=1 / trellis=2 / 8x8dct=1 / cqm=0 / deadzone=21,11 / fast_pskip=0 / chroma_qp_offset=-2 / threads=34 / lookahead_threads=8 / sliced_threads=0 / nr=0 / decimate=0 / interlaced=0 / bluray_compat=0 / constrained_intra=0 / bframes=16 / b_pyramid=2 / b_adapt=2 / b_bias=0 / direct=3 / weightb=1 / open_gop=0 / weightp=2 / keyint=240 / keyint_min=24 / scenecut=40 / intra_refresh=0 / rc_lookahead=60 / rc=crf / mbtree=0 / crf=19.8 / qcomp=0.60 / qpmin=0 / qpmax=69 / qpstep=4 / vbv_maxrate=62500 / vbv_bufsize=78125 / crf_max=0.0 / nal_hrd=none / filler=0 / ip_ratio=1.40 / pb_ratio=1.30 / aq=2:1.00
Default            : Yes
Forced           : No
Color range          : Limited
Color primaries        : BT.709
Transfer characteristics     : BT.709
Matrix coefficients        : BT.709

Audio #1
ID             : 2
Format           : FLAC
Format/Info          : Free Lossless Audio Codec
Codec ID           : A_FLAC
Duration           : 1 h 41 min
Bit rate mode          : Variable
Bit rate           : 301 kb/s
Channel(s)           : 1 channel
Channel layout         : C
Sampling rate          : 48.0 kHz
Frame rate           : 11.719 FPS (4096 SPF)
Bit depth          : 16 bits
Compression mode         : Lossless
Stream size          : 217 MiB (3%)
Writing library        : libFLAC 1.2.1 (UTC 2007-09-17)
Language           : Swedish
Default            : Yes
Forced           : No

Audio #2
ID             : 3
Format           : AAC LC
Format/Info          : Advanced Audio Codec Low Complexity
Codec ID           : A_AAC-2
Duration           : 1 h 41 min
Bit rate           : 75.5 kb/s
Channel(s)           : 2 channels
Channel layout         : L R
Sampling rate          : 48.0 kHz
Frame rate           : 46.875 FPS (1024 SPF)
Compression mode         : Lossy
Stream size          : 54.6 MiB (1%)
Title            : The Guardian interview with Ingmar Bergman
Language           : English
Default            : No
Forced           : No

Text #1
ID             : 4
Format           : UTF-8
Codec ID           : S_TEXT/UTF8
Codec ID/Info          : UTF-8 Plain Text
Duration           : 1 h 39 min
Bit rate           : 41 b/s
Count of elements        : 1084
Stream size          : 29.9 KiB (0%)
Title            : From BFI
Language           : English
Default            : Yes
Forced           : No

Text #2
ID             : 5
Format           : UTF-8
Codec ID           : S_TEXT/UTF8
Codec ID/Info          : UTF-8 Plain Text
Duration           : 1 h 39 min
Bit rate           : 41 b/s
Count of elements        : 923
Stream size          : 30.0 KiB (0%)
Title            : From Criterion
Language           : English
Default            : No
Forced           : No

Menu
00:00:00.000         : :Morning Prayer
00:06:35.625         : :Caligula
00:14:35.833         : :The Tobacconist
00:15:57.542         : :"I See Things Differently"
00:21:49.208         : :A Promise
00:28:48.000         : :"A Teacher Must Care About His Boys"
00:36:17.500         : :Bad Blood
00:45:05.250         : :In the Shadows
00:48:52.417         : :First Day of Exams
00:56:14.333         : :One Week to Finals
01:02:14.042         : :Breakdown
01:10:57.125         : :Murder?
01:15:55.250         : olice Investigation
01:18:23.667         : :"You Scared Her to Death!"
01:24:33.458         : :Expelled
01:29:44.458         : ost Soul
01:37:09.583         : :"Turn on the Light, Widgren!"

[/url]

[/url]

[/url]




                                                                  
                                                                                                                                                                                                                                                                                 
9f0ff1944bd6175dedc856f5124fb44e.torrent (21.35 KB, 下载次数: 0)

回复

使用道具 举报

小黑屋|百度云资源论坛

本网站所有资源来自网络,如无意中侵犯了您的权益,请发邮件至 [email protected],立即清除相关链接

GMT+8, 2021-12-7 22:08 , Processed in 0.087552 second(s), 26 queries .

Powered by Discuz! X3.2

© 2001-2013 Comsenz Inc.

快速回复 返回顶部 返回列表