百度云资源论坛

 找回密码
 立即注册
搜索

[BD-4K] 福奇 Fauci.2021.2160p.WEB-DL.DD5.1.DV.MP4.x265-DVSUX 16.13GB

[复制链接]
admin 发表于 2021-10-15 17:44:45 | 显示全部楼层 |阅读模式
福奇 Fauci.2021.2160p.WEB-DL.DD5.1.DV.MP4.x265-DVSUX 16.13GB                                                                                                                                                                              -->
帖子完整标题:福奇 Fauci.2021.2160p.WEB-DL.DD5.1.DV.MP4.x265-DVSUX 16.13GB





◎译  名 福奇
◎片  名 Fauci
◎年  代 2021
◎产  地 美国
◎类  别 纪录片 / 历史
◎语  言 英语
◎上映日期 2021-09-02(特柳赖德电影节) / 2021-10-06(美国网络)
◎豆瓣评分 /10 from 0 users
◎ 
◎片  长 104分钟
◎导  演 约翰·霍夫曼 John Hoffman / 珍妮特·托比亚斯 Janet Tobias
◎主  演 安东尼·福奇 Anthony Fauci
     博诺 Bono
     比尔·盖茨 Bill Gates
     乔治·W· 布什 George W. Bush

◎标  签 2021 | 纪录片 | PEOPLE | 美国 | 病毒 | 小台 | 不ㄨ相ㄨ关ㄨ的ㄨ胡ㄨ言ㄨ乱ㄨ语 | ?NationalGeographic

◎简  介

  国家地理打造的安东尼·福奇纪录片[福奇](Fauci,暂译)释出先导预告!该片由约翰·霍夫曼([合众为一])、珍妮特·托比亚斯([洞穴求生])共同执导。影片将追溯福奇的职业生涯,重点介绍他在艾滋病方面的工作,以及现在对抗新冠病毒的工作。该片采访对象包括小布什、比尔·盖茨等。
Video
ID             : 1
Format           : HEVC
Format/Info          : High Efficiency Video Coding
Format profile         : Main @Main
HDR format           : Dolby Vision, Version 1.0, dvhe.05.06, BL+RPU
Codec ID           : dvhe
Codec ID/Info          : High Efficiency Video Coding with Dolby Vision
Duration           : 1 h 44 min
Bit rate           : 21.7 Mb/s
Width            : 3 840 pixels
Height           : 2 160 pixels
Display aspect ratio       : 16:9
Frame rate mode        : Constant
Frame rate           : 23.976 (24000/1001/189150) FPS
Color space          : YUV
Chroma subsampling       : 4:2:0 (Type 0)
Bit depth          : 10 bits
Bits/(Pixel*Frame)       : 0.109
Stream size          : 15.8 GiB (98%)
Default            : Yes
Alternate group        : 1
Encoded date         : UTC 2021-10-14 08:51:18
Tagged date          : UTC 2021-10-14 08:55:54
Color range          : Full
Codec configuration box      : hvcC+dvcC

Audio
ID             : 2
Format           : AC-3
Format/Info          : Audio Coding 3
Commercial name        : Dolby Digital
Codec ID           : ac-3
Duration           : 1 h 44 min
Bit rate mode          : Constant
Bit rate           : 384 kb/s
Maximum bit rate         : 406 kb/s
Channel(s)           : 6 channels
Channel layout         : L R C LFE Ls Rs
Sampling rate          : 48.0 kHz
Frame rate           : 31.250 FPS (1536 SPF)
Compression mode         : Lossy
Stream size          : 288 MiB (2%)
Title            : English
Language           : English
Service kind         : Complete Main
Default            : Yes
Alternate group        : 1
Tagged date          : UTC 2021-10-14 08:55:54

Text #1
ID             : 3
Format           : Timed Text
Codec ID           : tx3g
Duration           : 1 h 41 min
Bit rate mode          : Variable
Bit rate           : 133 b/s
Stream size          : 99.4 KiB (0%)
Title            : English
Language           : English
Forced           : No
Encoded date         : UTC 2021-10-14 08:55:54
Tagged date          : UTC 2021-10-14 08:55:54

Text #2
ID             : 4
Format           : Timed Text
Codec ID           : tx3g
Duration           : 1 h 41 min
Bit rate mode          : Variable
Bit rate           : 127 b/s
Stream size          : 94.5 KiB (0%)
Title            : English
Language           : English
Forced           : No
Encoded date         : UTC 2021-10-14 08:55:54
Tagged date          : UTC 2021-10-14 08:55:54





                                                                  
                                                                                                                                                                                                                                                                                 
9da20058dca3e4786a77b63fc01318af.torrent (20.79 KB, 下载次数: 0)

回复

使用道具 举报

小黑屋|百度云资源论坛

本网站所有资源来自网络,如无意中侵犯了您的权益,请发邮件至 [email protected],立即清除相关链接

GMT+8, 2021-12-2 22:54 , Processed in 0.079620 second(s), 30 queries .

Powered by Discuz! X3.2

© 2001-2013 Comsenz Inc.

快速回复 返回顶部 返回列表