百度云资源论坛

 找回密码
 立即注册
搜索

[BD-4K] 警察局/正义陷落 Copshop.2021.2160p.AMZN.WEB-DL.x265.10bit.HDR10Plus.DDP5.1-CM 11 ...

[复制链接]
admin 发表于 2021-10-15 17:44:45 | 显示全部楼层 |阅读模式
警察局/正义陷落 Copshop.2021.2160p.AMZN.WEB-DL.x265.10bit.HDR10Plus.DDP5.1-CM 11.71GB                                                                                                                                                                              -->
帖子完整标题:警察局/正义陷落 Copshop.2021.2160p.AMZN.WEB-DL.x265.10bit.HDR10Plus.DDP5.1-CM 11.71GB





◎译  名 警察局/正义陷落/高玩殺手
◎片  名 Copshop
◎年  代 2021
◎产  地 美国
◎类  别 动作 / 惊悚
◎语  言 英语
◎上映日期 2021-09-17(美国)
◎豆瓣评分 6.6/10 from 67 users
◎ 
◎片  长 108分钟
◎导  演 乔·卡纳汉 Joe Carnahan
◎编  剧 乔·卡纳汉 Joe Carnahan / 马克·威廉姆斯 Mark Williams
◎主  演 弗兰克·格里罗 Frank Grillo
     杰拉德·巴特勒 Gerard Butler
     托比·哈斯 Toby Huss
     亚历克西斯·拉奥特 Alexis Louder
     泰特·弗莱彻 Tait Fletcher
     瑞恩·欧南 Ryan O'Nan
     何塞·巴勃罗·坎蒂略 Jose Pablo Cantillo
     基思·雅各 Keith Jardine
     大卫·沃恩 David Vaughn
     凯维·莱曼-默塞尤 Kaiwi Lyman-Mersereau
     马歇尔·库克 Marshall Cook
     克里斯托弗·迈克尔·霍利 Christopher Michael Holley
     罗伯特·沃克·布兰乔德 Robert Walker Branchaud
     特雷西·邦纳 Tracey Bonner

◎标  签 动作 | 美国 | 犯罪 | 惊悚 | 2021 | 美国电影 | 剧情 | 黑色幽默

◎简  介

  讲述一个小镇警察局成为三个人之间不可思议的战场——职业杀手、聪明的新手女警、除了酒吧找不到其他避难所的诈骗犯。
Video
ID             : 1
Format           : HEVC
Format/Info          : High Efficiency Video Coding
Format profile         : Main @Main
HDR format           : SMPTE ST 2094 App 4, Version 1, HDR10+ Profile B compatible
Codec ID           : V_MPEGH/ISO/HEVC
Duration           : 1 h 47 min
Bit rate           : 14.9 Mb/s
Width            : 3 840 pixels
Height           : 1 600 pixels
Display aspect ratio       : 2.40:1
Frame rate mode        : Constant
Frame rate           : 23.976 (24000/1001/189150) FPS
Color space          : YUV
Chroma subsampling       : 4:2:0
Bit depth          : 10 bits
Bits/(Pixel*Frame)       : 0.101
Stream size          : 11.2 GiB (96%)
Default            : Yes
Forced           : No
Color range          : Limited
Color primaries        : BT.2020
Transfer characteristics     : PQ
Matrix coefficients        : BT.2020 non-constant
Mastering display color primaries  : BT.2020
Mastering display luminance    : min: 0.0050 cd/m2, max: 1000 cd/m2
Maximum Content Light Level    : 999 cd/m2
Maximum Frame-Average Light Level  : 213 cd/m2

Audio
ID             : 2
Format           : E-AC-3
Format/Info          : Enhanced AC-3
Commercial name        : Dolby Digital Plus
Codec ID           : A_EAC3
Duration           : 1 h 47 min
Bit rate mode          : Constant
Bit rate           : 640 kb/s
Channel(s)           : 6 channels
Channel layout         : L R C LFE Ls Rs
Sampling rate          : 48.0 kHz
Frame rate           : 31.250 FPS (1536 SPF)
Compression mode         : Lossy
Stream size          : 493 MiB (4%)
Title            : English
Language           : English
Service kind         : Complete Main
Default            : No
Forced           : No

Text #1
ID             : 3
Format           : UTF-8
Codec ID           : S_TEXT/UTF8
Codec ID/Info          : UTF-8 Plain Text
Duration           : 1 h 46 min
Bit rate           : 71 b/s
Count of elements        : 2178
Stream size          : 55.5 KiB (0%)
Title            : English [SDH]
Language           : English
Default            : No
Forced           : No

Text #2
ID             : 4
Format           : UTF-8
Codec ID           : S_TEXT/UTF8
Codec ID/Info          : UTF-8 Plain Text
Duration           : 1 h 41 min
Bit rate           : 58 b/s
Count of elements        : 1651
Stream size          : 43.4 KiB (0%)
Title            : English
Language           : English
Default            : No
Forced           : No





                                                                  
                                                                                                                                                                                                                                                                                 
1e98df5760ddabd06a483fc0b91fa05f.torrent (15.28 KB, 下载次数: 0)

回复

使用道具 举报

小黑屋|百度云资源论坛

本网站所有资源来自网络,如无意中侵犯了您的权益,请发邮件至 [email protected],立即清除相关链接

GMT+8, 2021-12-2 22:41 , Processed in 0.101725 second(s), 31 queries .

Powered by Discuz! X3.2

© 2001-2013 Comsenz Inc.

快速回复 返回顶部 返回列表