百度云资源论坛

 找回密码
 立即注册
搜索

门徒 The.Protege.2021.1080p.US.BluRay.x264.DTS-MT 10.55GB

[复制链接]
admin 发表于 2021-10-15 18:10:13 | 显示全部楼层 |阅读模式
门徒 The.Protege.2021.1080p.US.BluRay.x264.DTS-MT 10.55GB                                                                                                                                                                              -->
帖子完整标题:门徒 The.Protege.2021.1080p.US.BluRay.x264.DTS-MT 10.55GB





◎译  名 门徒/The Asset/The Protege/刺客密令(台)/复仇杀姬(港)/有价之人/资产
◎片  名 The Protégé
◎年  代 2021
◎产  地 美国
◎类  别 动作 / 惊悚 / 犯罪
◎语  言 英语
◎上映日期 2021-08-20(美国)
◎豆瓣评分 5.7/10 from 3352 users
◎ 
◎片  长 109分钟
◎导  演 马丁·坎贝尔 Martin Campbell
◎编  剧 理查德·温克 Richard Wenk
◎主  演 李美琪 Maggie Q
     迈克尔·基顿 Michael Keaton
     塞缪尔·杰克逊 Samuel L. Jackson
     大卫·瑞托 David Rintoul
     帕特里克·麦拉海德 Patrick Malahide
     雷·费隆 Ray Fearon
     奥利·普费弗 Ori Pfeffer
     罗伯特·帕特里克 Robert Patrick
     小弗洛林·皮尔斯齐 Florin Piersic Jr.
     杜铎·奇里拉 Tudor Chirila
     沃利扎·比尼夫 Velizar Binev
     乔治·皮斯特拉努 George Pistereanu
     伊娃·努金·索森 Eva Nugyen Thorsen
     亚历克斯·博尔达 Alex Bordea
     塔尼娅·凯勒 Tanja Keller
     塔伊·阿特沃尔 Taj Atwal
     卡罗琳·朗奎 Caroline Loncq
     丽琪达·卡里 Richenda Carey
     大卫·斯特恩 David Sterne
     杰克·德格斯 Jack Derges
     唐·迈克尔·保罗 Don Michael Paul
     叶卡捷琳娜·贝克 Ekaterina Baker

◎标  签 动作 | 杀手 | 美国 | 犯罪 | 2021 | 女性 | 惊悚 | 剧情

◎简  介

  故事围绕伦勃朗(基顿饰)和安娜(李美琪饰)展开,这两个世界上最顶级的杀手将揭露一段发生在越南的神秘往事。多年来,他们游遍全球来互相争夺最抢手的合同。但当安娜的导师穆迪(杰克逊饰)被谋杀时,她和伦勃朗必须结盟,返回越南追捕凶手。
Video
ID             : 1
Format           : AVC
Format/Info          : Advanced Video Codec
Format profile         :
Format settings        : CABAC / 5 Ref Frames
Format settings, CABAC       : Yes
Format settings, Reference frames  : 5 frames
Codec ID           : V_MPEG4/ISO/AVC
Duration           : 1 h 48 min
Bit rate           : 12.4 Mb/s
Width            : 1 920 pixels
Height           : 802 pixels
Display aspect ratio       : 2.40:1
Frame rate mode        : Constant
Frame rate           : 23.976 (24000/1001/189150) FPS
Color space          : YUV
Chroma subsampling       : 4:2:0
Bit depth          : 8 bits
Scan type          : Progressive
Bits/(Pixel*Frame)       : 0.335
Stream size          : 9.40 GiB (89%)
Writing library        : x264 core 157 r2938 2b00a84Mod
Encoding settings        : cabac=1 / ref=5 / deblock=1:-3:-3 / analyse=0x3:0x133 / me=umh / subme=10 / psy=1 / psy_rd=1.05:0.00 / mixed_ref=1 / me_range=32 / chroma_me=1 / trellis=2 / 8x8dct=1 / cqm=0 / deadzone=21,11 / fast_pskip=0 / chroma_qp_offset=-2 / threads=12 / lookahead_threads=2 / sliced_threads=0 / nr=0 / decimate=0 / interlaced=0 / bluray_compat=0 / constrained_intra=0 / bframes=8 / b_pyramid=2 / b_adapt=2 / b_bias=0 / direct=3 / weightb=1 / open_gop=0 / weightp=2 / keyint=250 / keyint_min=24 / scenecut=40 / intra_refresh=0 / rc_lookahead=250 / rc=crf / mbtree=0 / crf=16.8 / qcomp=0.60 / qpmin=0 / qpmax=69 / qpstep=4 / vbv_maxrate=62500 / vbv_bufsize=78125 / crf_max=0.0 / nal_hrd=none / filler=0 / ip_ratio=1.30 / pb_ratio=1.20 / aq=3:0.80
Language           : English
Default            : Yes
Forced           : No
Color range          : Limited
Color primaries        : BT.709
Matrix coefficients        : BT.709

Audio
ID             : 2
Format           : DTS
Format/Info          : Digital Theater Systems
Codec ID           : A_DTS
Duration           : 1 h 48 min
Bit rate mode          : Constant
Bit rate           : 1 509 kb/s
Channel(s)           : 6 channels
Channel layout         : C L R Ls Rs LFE
Sampling rate          : 48.0 kHz
Frame rate           : 93.750 FPS (512 SPF)
Bit depth          : 24 bits
Compression mode         : Lossy
Stream size          : 1.15 GiB (11%)
Language           : English
Default            : Yes
Forced           : No

Text
ID             : 3
Format           : UTF-8
Codec ID           : S_TEXT/UTF8
Codec ID/Info          : UTF-8 Plain Text
Duration           : 1 h 36 min
Bit rate           : 36 b/s
Count of elements        : 786
Stream size          : 26.2 KiB (0%)
Title            : SRT
Language           : English
Default            : Yes
Forced           : No

Menu
00:00:00.000         : Chapter 01
00:03:42.848         : Chapter 02
00:11:16.301         : Chapter 03
00:20:44.285         : Chapter 04
00:25:32.489         : Chapter 05
00:31:32.474         : Chapter 06
00:37:53.771         : Chapter 07
00:46:41.632         : Chapter 08
00:51:49.315         : Chapter 09
00:54:49.620         : Chapter 10
00:59:55.926         : Chapter 11
01:05:41.271         : Chapter 12
01:12:48.739         : Chapter 13
01:18:25.993         : Chapter 14
01:25:31.293         : Chapter 15
01:34:57.817         : Chapter 16

[/url]

[/url]

[/url]




                                                                  
                                                                                                                                                                                                                                                                                 
da3382cda8b0e8186fee84a295799dc5.torrent (13.81 KB, 下载次数: 0)

回复

使用道具 举报

小黑屋|百度云资源论坛

本网站所有资源来自网络,如无意中侵犯了您的权益,请发邮件至 [email protected],立即清除相关链接

GMT+8, 2021-12-7 22:44 , Processed in 0.072374 second(s), 26 queries .

Powered by Discuz! X3.2

© 2001-2013 Comsenz Inc.

快速回复 返回顶部 返回列表