百度云资源论坛

 找回密码
 立即注册
搜索

最后一个/最后一个男人 Last.Man.Down.2021.1080p.BluRay.x264.DTS-MT 6.08GB ... ...

[复制链接]
admin 发表于 2021-10-15 18:10:13 | 显示全部楼层 |阅读模式
最后一个/最后一个男人 Last.Man.Down.2021.1080p.BluRay.x264.DTS-MT 6.08GB                                                                                                                                                                              -->
帖子完整标题:最后一个/最后一个男人 Last.Man.Down.2021.1080p.BluRay.x264.DTS-MT 6.08GB





◎译  名 最后一个/最后一个男人
◎片  名 Last Man Down
◎年  代 2021
◎产  地 瑞典,英国
◎类  别 动作
◎语  言 英语
◎上映日期 2021-10-19(美国)
◎豆瓣评分 /10 from 0 users
◎ 
◎编  剧 丹尼尔·斯蒂森 Daniel Stisen
◎主  演 丹尼尔·斯蒂森 Daniel Stisen
     斯坦尼斯拉夫·雅涅夫斯基 Stanislav Ianevski
     娜塔莎·迈尔兹 Natassia Malthe
     罗伯特·福林 Robert Follin
     迈克尔·比灵顿 Michael Billington
     卡米尔·雷米泽斯基 Kamil Lemieszewski
     萨姆·哈迪 Sam Hardy

◎标  签 动作 | 瑞典 | 2021 | 英国 | 暴力 | 犯罪 | 血腥 | 斯坦尼斯拉夫·雅涅夫斯基

◎简  介

  John Wood left the pieces of a broken civilisation behind, to go back to his roots in the woodland, after a virus pandemic struck the world. Residing in a simple cabin, he only wants peace and to live in harmony with nature. Coming from a long line of timber men, he joined the army and served as a soldier for many years. Rebelling against his superiors for killing civilians under martial law. John feels he got his own wife killed when saving hundreds of innocent civilians from certain death. His wife executed point blank as retribution for John's disobedience and supposed heroic acts. Now, a young woman named Maria Johnson has escaped a pandemic research lab. She's been part of experiments to find a cure for the still raging virus. Carrying the potential cure in her blood, she is hunted by profiteers and mercenaries who knows her secret. Coming upon John's cabin in the woods, Maria is instinctively taken into shelter by John. He wants her to recover fast and leave, but by learning her...
Video
ID             : 1
Format           : AVC
Format/Info          : Advanced Video Codec
Format profile         :
Format settings        : CABAC / 5 Ref Frames
Format settings, CABAC       : Yes
Format settings, Reference frames  : 5 frames
Codec ID           : V_MPEG4/ISO/AVC
Duration           : 1 h 27 min
Bit rate           : 8 406 kb/s
Width            : 1 920 pixels
Height           : 752 pixels
Display aspect ratio       : 2.553
Frame rate mode        : Constant
Frame rate           : 23.976 (24000/1001/189150) FPS
Color space          : YUV
Chroma subsampling       : 4:2:0
Bit depth          : 8 bits
Scan type          : Progressive
Bits/(Pixel*Frame)       : 0.243
Stream size          : 5.15 GiB (85%)
Writing library        : x264 core 157 r2938 2b00a84Mod
Encoding settings        : cabac=1 / ref=5 / deblock=1:-3:-3 / analyse=0x3:0x133 / me=umh / subme=10 / psy=1 / psy_rd=1.05:0.00 / mixed_ref=1 / me_range=32 / chroma_me=1 / trellis=2 / 8x8dct=1 / cqm=0 / deadzone=21,11 / fast_pskip=0 / chroma_qp_offset=-2 / threads=12 / lookahead_threads=2 / sliced_threads=0 / nr=0 / decimate=0 / interlaced=0 / bluray_compat=0 / constrained_intra=0 / bframes=8 / b_pyramid=2 / b_adapt=2 / b_bias=0 / direct=3 / weightb=1 / open_gop=0 / weightp=2 / keyint=250 / keyint_min=24 / scenecut=40 / intra_refresh=0 / rc_lookahead=250 / rc=crf / mbtree=0 / crf=16.8 / qcomp=0.60 / qpmin=0 / qpmax=69 / qpstep=4 / vbv_maxrate=62500 / vbv_bufsize=78125 / crf_max=0.0 / nal_hrd=none / filler=0 / ip_ratio=1.30 / pb_ratio=1.20 / aq=3:0.80
Language           : English
Default            : Yes
Forced           : No
Color range          : Limited
Color primaries        : BT.709
Matrix coefficients        : BT.709

Audio
ID             : 2
Format           : DTS
Format/Info          : Digital Theater Systems
Codec ID           : A_DTS
Duration           : 1 h 27 min
Bit rate mode          : Constant
Bit rate           : 1 509 kb/s
Channel(s)           : 6 channels
Channel layout         : C L R Ls Rs LFE
Sampling rate          : 48.0 kHz
Frame rate           : 93.750 FPS (512 SPF)
Bit depth          : 16 bits
Compression mode         : Lossy
Stream size          : 947 MiB (15%)
Language           : English
Default            : Yes
Forced           : No

Text
ID             : 3
Format           : UTF-8
Codec ID           : S_TEXT/UTF8
Codec ID/Info          : UTF-8 Plain Text
Duration           : 1 h 24 min
Bit rate           : 22 b/s
Count of elements        : 624
Stream size          : 13.9 KiB (0%)
Title            : SRT
Language           : English
Default            : Yes
Forced           : No

Menu
00:00:00.000         : Chapter 01
00:09:48.588         : Chapter 02
00:18:53.758         : Chapter 03
00:27:09.503         : Chapter 04
00:36:04.621         : Chapter 05
00:45:36.776         : Chapter 06
00:54:28.140         : Chapter 07
01:02:37.170         : Chapter 08
01:10:29.851         : Chapter 09
01:19:50.744         : Chapter 10
01:25:38.508         : Chapter 11

[/url]

[/url]




                                                                  
                                                                                                                                                                                                                                                                                 
792e41c4f273297a0791cd0a78511215.torrent (15.82 KB, 下载次数: 0)

回复

使用道具 举报

小黑屋|百度云资源论坛

本网站所有资源来自网络,如无意中侵犯了您的权益,请发邮件至 [email protected],立即清除相关链接

GMT+8, 2021-12-7 21:33 , Processed in 0.108706 second(s), 30 queries .

Powered by Discuz! X3.2

© 2001-2013 Comsenz Inc.

快速回复 返回顶部 返回列表