百度云资源论坛

 找回密码
 立即注册
搜索

感谢来电.Je.Compte.Sur.Vous.2015.FRENCH.1080p.BluRay.x264-ZEST 6.55GB

[复制链接]
admin 发表于 2021-10-16 18:22:44 | 显示全部楼层 |阅读模式
感谢来电.Je.Compte.Sur.Vous.2015.FRENCH.1080p.BluRay.x264-ZEST6.55GB                                                                                                                                                                              -->


◎译  名 感谢来电/Thank You for Calling
◎片  名 Je compte sur vous
◎年  代 2015
◎产  地 法国
◎类  别 喜剧/传记/犯罪
◎语  言 法语
◎上映日期 2015-12-30(法国)
◎IMDb评分5.6/10 from 383 users

◎豆瓣评分 5.9/10 from 116 users
◎ https://douban.com/subject/26690896/
◎片  长 98分钟
◎导  演 帕斯卡·埃尔贝 Pascal Elbé
◎编  剧 帕斯卡·埃尔贝 Pascal Elbé / 诺亚·德勃雷 Noé Debré / Isaac Sharry Isaac Sharry
◎主  演 樊尚·埃尔巴兹 Vincent Elbaz
     扎布·布雷特曼 Zabou Breitman


◎标  签 法国 | 犯罪 | 诈骗 | 2015 | 心理 | 喜剧 | 传记 | 法国电影


◎简  介


  
  一个男人,一个手机,几百万欧元被盗,大约40个被欺骗的机构。吉尔伯特·佩雷斯滥用他的欺骗所带来的肾上腺素,熟练地欺骗受害者,轮流扮演他们的首席执行官与特工。他梦想给他的妻子芭芭拉一个正常的生活,但是贪得无厌,无拘无束,他的愚蠢会使他走向灭亡。
General
Unique ID        : 178119315615744415072873514759025998079 (0x86008848DD1D8876A281BE468F4E38FF)
Complete name      : Z:Downloads[ www.CpasBien.cm ] Je.Compte.Sur.Vous.2015.FRENCH.1080p.BluRay.x264-ZEST.mkv
Format         : Matroska
Format version     : Version 2
File size        : 6.55 GiB
Duration       : 1 h 33 min
Overall bit rate     : 9 975 kb/s
Encoded date       : UTC 2016-05-04 15:32:39
Writing application    : mkvmerge v9.1.0 ('Little Earthquakes') 32bit
Writing library      : libebml v1.3.3 + libmatroska v1.4.4


Video
ID         : 1
Format         : AVC
Format/Info      : Advanced Video Codec
Format profile     :
Format settings      : CABAC / 5 Ref Frames
Format settings, CABAC   : Yes
Format settings, Reference fra : 5 frames
Codec ID       : V_MPEG4/ISO/AVC
Duration       : 1 h 33 min
Bit rate       : 8 470 kb/s
Width        : 1 920 pixels
Height         : 800 pixels
Display aspect ratio   : 2.40:1
Frame rate mode      : Constant
Frame rate       : 25.000 FPS
Color space      : YUV
Chroma subsampling     : 4:2:0
Bit depth        : 8 bits
Scan type        : Progressive
Bits/(Pixel*Frame)     : 0.221
Stream size      : 5.56 GiB (85%)
Writing library      : x264 core 148 r2692 64f4e24
Encoding settings    : cabac=1 / ref=5 / deblock=1:0:0 / analyse=0x3:0x113 / me=umh / subme=8 / psy=1 / psy_rd=1.00:0.00 / mixed_ref=1 / me_range=16 / chroma_me=1 / trellis=1 / 8x8dct=1 / cqm=0 / deadzone=21,11 / fast_pskip=1 / chroma_qp_offset=-2 / threads=12 / lookahead_threads=2 / sliced_threads=0 / nr=0 / decimate=1 / interlaced=0 / bluray_compat=0 / constrained_intra=0 / bframes=3 / b_pyramid=2 / b_adapt=2 / b_bias=0 / direct=3 / weightb=1 / open_gop=0 / weightp=2 / keyint=250 / keyint_min=25 / scenecut=40 / intra_refresh=0 / rc_lookahead=50 / rc=2pass / mbtree=1 / bitrate=8470 / ratetol=1.0 / qcomp=0.60 / qpmin=0 / qpmax=69 / qpstep=4 / cplxblur=20.0 / qblur=0.5 / vbv_maxrate=62500 / vbv_bufsize=78125 / nal_hrd=none / filler=0 / ip_ratio=1.40 / aq=1:1.00
Language       : English
Default        : Yes
Forced         : No


Audio
ID         : 2
Format         : DTS
Format/Info      : Digital Theater Systems
Codec ID       : A_DTS
Duration       : 1 h 33 min
Bit rate mode      : Constant
Bit rate       : 1 509 kb/s
Channel(s)       : 6 channels
Channel layout     : C L R Ls Rs LFE
Sampling rate      : 48.0 kHz
Frame rate       : 93.750 FPS (512 SPF)
Bit depth        : 24 bits
Compression mode     : Lossy
Stream size      : 1 014 MiB (15%)
Language       : French
Default        : Yes
Forced         : No


Text
ID         : 3
Format         : UTF-8
Codec ID       : S_TEXT/UTF8
Codec ID/Info      : UTF-8 Plain Text
Duration       : 1 h 33 min
Bit rate       : 58 b/s
Count of elements    : 1357
Stream size      : 40.5 KiB (0%)
Language       : French
Default        : No
Forced         : No


Menu
00:00:00.000       : en:00:00:00.000
00:09:53.840       : en:00:09:53.840
00:19:41.680       : en:00:19:41.680
00:30:06.600       : en:00:30:06.600
00:38:14.000       : en:00:38:14.000
00:49:12.520       : en:00:49:12.520
00:57:44.440       : en:00:57:44.440
01:06:26.680       : en:01:06:26.680
01:17:29.000       : en:01:17:29.000
01:29:08.360       : en:01:29:08.360

百度秒传链接:
1053D800E2F7387277789519BA9E62D1#B6EFD030C953BCA497DCB9582EACFBE8#7030650378#Je.Compte.Sur.Vous.2015.FRENCH.1080p.BluRay.x264-ZEST.mkv

                                                                  
                                                                                                                                                                                                                                                                                 
633a8ecf022d04f13a2183448b0b8045.torrent (524.36 KB, 下载次数: 0)

回复

使用道具 举报

小黑屋|百度云资源论坛

本网站所有资源来自网络,如无意中侵犯了您的权益,请发邮件至 [email protected],立即清除相关链接

GMT+8, 2021-12-7 22:35 , Processed in 0.115006 second(s), 30 queries .

Powered by Discuz! X3.2

© 2001-2013 Comsenz Inc.

快速回复 返回顶部 返回列表