百度云资源论坛

 找回密码
 立即注册
搜索

X特遣队:全员集结 The.Suicide.Squad.2021.1080p.BluRay.x264.DTS-HD.MA.7.1-FGT 14.7 ...

[复制链接]
admin 发表于 2021-10-17 15:32:44 | 显示全部楼层 |阅读模式
X特遣队:全员集结 The.Suicide.Squad.2021.1080p.BluRay.x264.DTS-HD.MA.7.1-FGT 14.79GB                                                                                                                                                                              -->
帖子完整标题:X特遣队:全员集结 The.Suicide.Squad.2021.1080p.BluRay.x264.DTS-HD.MA.7.1-FGT 14.79GB





◎译  名 X特遣队:全员集结/Suicide Squad 2/X特遣队2/新自杀小队/自杀小队2/自杀特攻(港)/自杀突击队2/自杀突击队集结(台)
◎片  名 The Suicide Squad
◎年  代 2021
◎产  地 美国,加拿大,英国
◎类  别 喜剧 / 动作 / 科幻 / 冒险
◎语  言 英语,西班牙语
◎上映日期 2021-07-28(法国) / 2021-08-06(美国)
◎豆瓣评分 8.1/10 from 166456 users
◎ 
◎片  长 132分钟
◎导  演 詹姆斯·古恩 James Gunn
◎编  剧 詹姆斯·古恩 James Gunn / 约翰·奥斯特兰德 John Ostrander
◎主  演 玛格特·罗比 Margot Robbie
     伊德里斯·艾尔巴 Idris Elba
     约翰·塞纳 John Cena
     乔尔·金纳曼 Joel Kinnaman
     西尔维斯特·史泰龙 Sylvester Stallone
     维奥拉·戴维斯 Viola Davis
     大卫·达斯马齐连 David Dastmalchian
     迈克尔·鲁克 Michael Rooker
     杰·科特尼 Jai Courtney
     彼得·卡帕尔迪 Peter Capaldi
     艾莉丝·布拉加 Alice Braga
     皮特·戴维森 Pete Davidson
     华金·科西奥 Joaquín Cosio
     胡安·迭戈·博托 Juan Diego Botto
     斯托姆·瑞德 Storm Reid
     内森·菲利安 Nathan Fillion
     塔伊加·维迪提 Taika Waititi
     史蒂夫·阿吉 Steve Agee
     肖恩·古恩 Sean Gunn
     弗卢拉·博格 Flula Borg
     约翰·奥斯特兰德 John Ostrander
     黄美玲 Mayling Ng
     丹妮拉·曼希沃 Daniela Melchior
     史蒂芬·布莱克哈特 Stephen Blackehart
     詹尼佛·霍兰德 Jennifer Holland
     迪·布拉雷·贝克尔 Dee Bradley Baker
     雷·埃尔南德斯 Rey Hernandez
     雷纳尔多·法伯勒 Reinaldo Faberlle
     乔希·文图拉 Josh Ventura
     Gerardo Davila Gerardo Davila
     米凯拉·霍沃 Mikaela Hoover
     林恩·阿什 Lynne Ashe
     安德里娅·安德拉德 Andrea Andrade
     兰德尔·P·海文斯 Randall P. Havens
     迈克尔·艾伦·米利甘 Michael Aaron Milligan
     特伦斯·罗斯摩尔 Terence Rosemore
     娜塔莉·萨福兰 Natalia Safran
     詹姆斯·威廉·巴拉德 James William Ballard
     蒂莫西·卡尔 Timothy Carr
     玛丽索尔·科雷亚 Marisol Correa
     约翰·盖蒂尔 John Gettier
     麦克斯威尔·海史密斯 Maxwell Highsmith
     洛伊德·考夫曼 Lloyd Kaufman
     迪索·拉莫斯 Diezel Ramos
     弗雷迪·史卓玛 Freddie Stroma
     维多利亚·佩吉·沃特金斯 Victoria Paige Watkins

◎标  签 DC | 美国 | 科幻 | 漫画改编 | 动作 | 犯罪 | 喜剧 | 2021

◎简  介

  关押在美梦监狱的X特遣队成员获得一项可以减轻刑罚的新任务,前往南美洲的科托马耳他岛国,摧毁纳粹时期遗留的约顿海姆监狱和实验室,它当前用于关押该国的犯并施行人体实验。执行任务期间,X特遣队遭遇巨型外星生物海星斯塔罗,并与它发生冲突。
Video
ID             : 1
Format           : AVC
Format/Info          : Advanced Video Codec
Format profile         :
Format settings        : CABAC / 4 Ref Frames
Format settings, CABAC       : Yes
Format settings, Reference frames  : 4 frames
Codec ID           : V_MPEG4/ISO/AVC
Duration           : 2 h 12 min
Bit rate           : 11.5 Mb/s
Width            : 1 920 pixels
Height           : 1 012 pixels
Display aspect ratio       : 1.897
Frame rate mode        : Constant
Frame rate           : 23.976 (24000/1001/189150) FPS
Color space          : YUV
Chroma subsampling       : 4:2:0
Bit depth          : 8 bits
Scan type          : Progressive
Bits/(Pixel*Frame)       : 0.247
Stream size          : 10.6 GiB (72%)
Writing library        : x264 core 148 r2748 97eaef2
Encoding settings        : cabac=1 / ref=4 / deblock=1:-2:-2 / analyse=0x3:0x113 / me=umh / subme=9 / psy=1 / psy_rd=1.00:0.15 / mixed_ref=1 / me_range=16 / chroma_me=1 / trellis=2 / 8x8dct=1 / cqm=0 / deadzone=21,11 / fast_pskip=1 / chroma_qp_offset=-3 / threads=72 / lookahead_threads=3 / sliced_threads=0 / nr=0 / decimate=1 / interlaced=0 / bluray_compat=0 / constrained_intra=0 / bframes=3 / b_pyramid=2 / b_adapt=1 / b_bias=0 / direct=3 / weightb=1 / open_gop=0 / weightp=2 / keyint=250 / keyint_min=25 / scenecut=40 / intra_refresh=0 / rc_lookahead=50 / rc=2pass / mbtree=1 / bitrate=11500 / ratetol=1.0 / qcomp=0.60 / qpmin=0 / qpmax=69 / qpstep=4 / cplxblur=20.0 / qblur=0.5 / vbv_maxrate=31250 / vbv_bufsize=31250 / nal_hrd=none / filler=0 / ip_ratio=1.40 / aq=1:1.00
Language           : English
Default            : Yes
Forced           : No

Audio
ID             : 2
Format           : DTS XLL
Format/Info          : Digital Theater Systems
Commercial name        : DTS-HD Master Audio
Codec ID           : A_DTS
Duration           : 2 h 12 min
Bit rate mode          : Variable
Bit rate           : 4 480 kb/s
Channel(s)           : 8 channels
Channel layout         : C L R LFE Lb Rb Lss Rss
Sampling rate          : 48.0 kHz
Frame rate           : 93.750 FPS (512 SPF)
Bit depth          : 24 bits
Compression mode         : Lossless
Stream size          : 4.13 GiB (28%)
Title            : DTS-HD MA 7.1
Language           : English
Default            : No
Forced           : No

Text #1
ID             : 3
Format           : UTF-8
Codec ID           : S_TEXT/UTF8
Codec ID/Info          : UTF-8 Plain Text
Duration           : 2 h 11 min
Bit rate           : 44 b/s
Count of elements        : 1420
Stream size          : 42.8 KiB (0%)
Title            : SRT
Language           : English
Default            : Yes
Forced           : No

Text #2
ID             : 4
ID in the original source medium   : 4608 (0x1200)
Format           : PGS
Muxing mode          : zlib
Codec ID           : S_HDMV/PGS
Codec ID/Info          : Picture based subtitle format used on BDs/HD-DVDs
Duration           : 2 h 11 min
Bit rate           : 36.5 kb/s
Count of elements        : 3892
Stream size          : 34.4 MiB (0%)
Language           : English
Default            : No
Forced           : No
Original source medium       : Blu-ray

Text #3
ID             : 5
ID in the original source medium   : 4609 (0x1201)
Format           : PGS
Muxing mode          : zlib
Codec ID           : S_HDMV/PGS
Codec ID/Info          : Picture based subtitle format used on BDs/HD-DVDs
Duration           : 2 h 11 min
Bit rate           : 21.0 kb/s
Count of elements        : 2530
Stream size          : 19.8 MiB (0%)
Language           : French
Default            : No
Forced           : No
Original source medium       : Blu-ray

Text #4
ID             : 6
ID in the original source medium   : 4610 (0x1202)
Format           : PGS
Muxing mode          : zlib
Codec ID           : S_HDMV/PGS
Codec ID/Info          : Picture based subtitle format used on BDs/HD-DVDs
Duration           : 2 h 11 min
Bit rate           : 31.4 kb/s
Count of elements        : 3756
Stream size          : 29.5 MiB (0%)
Language           : Italian
Default            : No
Forced           : No
Original source medium       : Blu-ray

Text #5
ID             : 7
ID in the original source medium   : 4611 (0x1203)
Format           : PGS
Muxing mode          : zlib
Codec ID           : S_HDMV/PGS
Codec ID/Info          : Picture based subtitle format used on BDs/HD-DVDs
Duration           : 2 h 9 min
Bit rate           : 24.0 kb/s
Count of elements        : 2408
Stream size          : 22.3 MiB (0%)
Language           : Spanish
Default            : No
Forced           : No
Original source medium       : Blu-ray

Text #6
ID             : 8
ID in the original source medium   : 4612 (0x1204)
Format           : PGS
Muxing mode          : zlib
Codec ID           : S_HDMV/PGS
Codec ID/Info          : Picture based subtitle format used on BDs/HD-DVDs
Duration           : 2 h 9 min
Bit rate           : 25.0 kb/s
Count of elements        : 2590
Stream size          : 23.2 MiB (0%)
Language           : Portuguese
Default            : No
Forced           : No
Original source medium       : Blu-ray

Menu
00:00:00.000         : en:Chapter 01
00:14:25.573         : en:Chapter 02
00:22:08.035         : en:Chapter 03
00:31:31.973         : en:Chapter 04
00:40:48.696         : en:Chapter 05
00:50:20.017         : en:Chapter 06
01:01:09.666         : en:Chapter 07
01:10:05.868         : en:Chapter 08
01:19:44.488         : en:Chapter 09
01:29:00.710         : en:Chapter 10
01:40:41.035         : en:Chapter 11
01:50:36.880         : en:Chapter 12
01:59:28.494         : en:Chapter 13

[/url]

[/url]

[/url]




                                                                  
                                                                                                                                                                                                                                                                                 
e17ee8e5a93942c5932d734fe67e38db.torrent (19.13 KB, 下载次数: 0)

回复

使用道具 举报

小黑屋|百度云资源论坛

本网站所有资源来自网络,如无意中侵犯了您的权益,请发邮件至 [email protected],立即清除相关链接

GMT+8, 2021-12-7 21:34 , Processed in 0.116572 second(s), 30 queries .

Powered by Discuz! X3.2

© 2001-2013 Comsenz Inc.

快速回复 返回顶部 返回列表