百度云资源论坛

 找回密码
 立即注册
搜索

再续前世情/再世惊情 Dead.Again.1991.1080p.BluRay.x264-MiMiC 19.02GB

[复制链接]
admin 发表于 2021-10-17 15:32:44 | 显示全部楼层 |阅读模式
再续前世情/再世惊情 Dead.Again.1991.1080p.BluRay.x264-MiMiC 19.02GB                                                                                                                                                                              -->
帖子完整标题:再续前世情/再世惊情 Dead.Again.1991.1080p.BluRay.x264-MiMiC 19.02GB





◎译  名 再续前世情/再世惊情/再死一次
◎片  名 Dead Again
◎年  代 1991
◎产  地 美国
◎类  别 剧情 / 悬疑 / 犯罪
◎语  言 英语
◎上映日期 1991-08-30(美国)
◎豆瓣评分 7.3/10 from 912 users
◎ 
◎片  长 107 分钟
◎导  演 肯尼思·布拉纳 Kenneth Branagh
◎编  剧 斯科特·弗兰克 Scott Frank
◎主  演 肯尼思·布拉纳 Kenneth Branagh
     安迪·加西亚 Andy Garcia
     德里克·雅各比 Derek Jacobi
     韦恩·奈特 Wayne Knight
     汉娜·许古拉 Hanna Schygulla
     坎贝尔·斯科特 Campbell Scott
     艾玛·汤普森 Emma Thompson
     乔·安德森 Jo Anderson
     克斯汀·埃伯索尔 Christine Ebersole
     路易斯·海尔 Lois Hall
     理查德·伊斯顿 Richard Easton
     雷蒙德·克鲁斯 Raymond Cruz
     罗宾·威廉姆斯 Robin Williams
     帕特里克·道尔 Patrick Doyle
     Gregor Hesse Gregor Hesse

◎标  签 悬疑 | 美国 | 惊悚 | 爱情 | EmmaThompson | 美国电影 | KennethBranagh | 1991

◎简  介

  麦克(肯尼思·布拉纳 Kenneth Branagh 饰)是一名私家侦探,一日,一位失去了记忆的女子(艾玛·汤普森 Emma Thompson 饰)向他求助,希望能够通过他的帮助找回自己的身份。在催眠大师富兰克林(德里克·雅各比 Derek Jacobi 饰)的催眠之中,女子得知了自己前世的姓名——玛格丽特。
  
  随着时间的推移,麦克渐渐爱上了善良的失意女子,在一次催眠中,他发现自己的前世竟然就是玛格丽特的丈夫罗曼,而玛格丽特正是死于罗曼之手。随着调查的深入,麦克发现富兰克林亦被卷入了他们纷乱复杂的前世今生之中,而他其实才是杀害玛格丽特的真正凶手。如今,命运让富兰克林和玛格丽特再度重逢,亦将玛格丽特置于了危险之中。

◎获奖情况

  第42届柏林国际电影节 ?(1992)
  金熊奖最佳影片(提名) 肯尼思·布拉纳
Video
ID             : 1
Format           : AVC
Format/Info          : Advanced Video Codec
Format profile         :
Format settings        : CABAC / 4 Ref Frames
Format settings, CABAC       : Yes
Format settings, Reference frames  : 4 frames
Codec ID           : V_MPEG4/ISO/AVC
Duration           : 1 h 47 min
Bit rate           : 21.7 Mb/s
Width            : 1 920 pixels
Height           : 1 080 pixels
Display aspect ratio       : 16:9
Frame rate mode        : Constant
Frame rate           : 23.976 (24000/1001/189150) FPS
Color space          : YUV
Chroma subsampling       : 4:2:0
Bit depth          : 8 bits
Scan type          : Progressive
Bits/(Pixel*Frame)       : 0.437
Stream size          : 16.3 GiB (86%)
Writing library        : x264 core 164 r3065 ae03d92
Encoding settings        : cabac=1 / ref=4 / deblock=1:0:0 / analyse=0x3:0x133 / me=umh / subme=9 / psy=1 / psy_rd=1.00:0.00 / mixed_ref=1 / me_range=16 / chroma_me=1 / trellis=2 / 8x8dct=1 / cqm=0 / deadzone=21,11 / fast_pskip=0 / chroma_qp_offset=-2 / threads=34 / lookahead_threads=2 / sliced_threads=0 / nr=0 / decimate=0 / interlaced=0 / bluray_compat=0 / constrained_intra=0 / bframes=3 / b_pyramid=2 / b_adapt=2 / b_bias=0 / direct=3 / weightb=1 / open_gop=0 / weightp=2 / keyint=240 / keyint_min=23 / scenecut=40 / intra_refresh=0 / rc=crf / mbtree=0 / crf=17.3 / qcomp=0.60 / qpmin=0 / qpmax=69 / qpstep=4 / ip_ratio=1.40 / pb_ratio=1.30 / aq=1:1.00
Default            : Yes
Forced           : No
Color range          : Limited
Matrix coefficients        : BT.709

Audio #1
ID             : 2
Format           : MLP FBA
Format/Info          : Meridian Lossless Packing FBA
Commercial name        : Dolby TrueHD
Codec ID           : A_TRUEHD
Duration           : 1 h 47 min
Bit rate mode          : Variable
Bit rate           : 3 087 kb/s
Maximum bit rate         : 4 473 kb/s
Channel(s)           : 6 channels
Channel layout         : L R C LFE Ls Rs
Sampling rate          : 48.0 kHz
Frame rate           : 1 200.000 FPS (40 SPF)
Compression mode         : Lossless
Stream size          : 2.32 GiB (12%)
Language           : English
Default            : Yes
Forced           : No

Audio #2
ID             : 3
Format           : AAC LC
Format/Info          : Advanced Audio Codec Low Complexity
Codec ID           : A_AAC-2
Duration           : 1 h 47 min
Bit rate           : 114 kb/s
Channel(s)           : 2 channels
Channel layout         : L R
Sampling rate          : 48.0 kHz
Frame rate           : 46.875 FPS (1024 SPF)
Compression mode         : Lossy
Delay relative to video      : 20 ms
Stream size          : 87.9 MiB (0%)
Title            : Commentary by Lindsay Doran and Scott Frank
Language           : English
Default            : Yes
Forced           : No

Audio #3
ID             : 4
Format           : AAC LC
Format/Info          : Advanced Audio Codec Low Complexity
Codec ID           : A_AAC-2
Duration           : 1 h 47 min
Bit rate           : 103 kb/s
Channel(s)           : 2 channels
Channel layout         : L R
Sampling rate          : 48.0 kHz
Frame rate           : 46.875 FPS (1024 SPF)
Compression mode         : Lossy
Delay relative to video      : 20 ms
Stream size          : 79.7 MiB (0%)
Title            : Commentary by Director Kenneth Branagh
Language           : English
Default            : Yes
Forced           : No

Text #1
ID             : 5
Format           : PGS
Muxing mode          : zlib
Codec ID           : S_HDMV/PGS
Codec ID/Info          : Picture based subtitle format used on BDs/HD-DVDs
Duration           : 1 h 39 min
Bit rate           : 44.8 kb/s
Count of elements        : 3198
Stream size          : 31.9 MiB (0%)
Title            : English
Language           : English
Default            : No
Forced           : No

Text #2
ID             : 6
Format           : PGS
Muxing mode          : zlib
Codec ID           : S_HDMV/PGS
Codec ID/Info          : Picture based subtitle format used on BDs/HD-DVDs
Duration           : 1 h 40 min
Bit rate           : 47.4 kb/s
Count of elements        : 3384
Stream size          : 34.2 MiB (0%)
Title            : English - SDH
Language           : English
Default            : No
Forced           : No

Text #3
ID             : 7
Format           : PGS
Muxing mode          : zlib
Codec ID           : S_HDMV/PGS
Codec ID/Info          : Picture based subtitle format used on BDs/HD-DVDs
Duration           : 1 h 42 min
Bit rate           : 36.4 kb/s
Count of elements        : 2266
Stream size          : 26.8 MiB (0%)
Title            : French
Language           : French
Default            : No
Forced           : No

Text #4
ID             : 8
Format           : PGS
Muxing mode          : zlib
Codec ID           : S_HDMV/PGS
Codec ID/Info          : Picture based subtitle format used on BDs/HD-DVDs
Duration           : 1 h 47 min
Bit rate           : 70.3 kb/s
Count of elements        : 3852
Stream size          : 54.1 MiB (0%)
Title            : English Commentary by Lindsay Doran and Scott Frank
Language           : English
Default            : No
Forced           : No

Text #5
ID             : 9
Format           : PGS
Muxing mode          : zlib
Codec ID           : S_HDMV/PGS
Codec ID/Info          : Picture based subtitle format used on BDs/HD-DVDs
Duration           : 1 h 47 min
Bit rate           : 56.0 kb/s
Count of elements        : 3628
Stream size          : 43.1 MiB (0%)
Title            : French Commentary by Lindsay Doran and Scott Frank
Language           : French
Default            : No
Forced           : No

Text #6
ID             : 10
Format           : PGS
Muxing mode          : zlib
Codec ID           : S_HDMV/PGS
Codec ID/Info          : Picture based subtitle format used on BDs/HD-DVDs
Duration           : 1 h 44 min
Bit rate           : 79.6 kb/s
Count of elements        : 3641
Stream size          : 59.3 MiB (0%)
Title            : English Commentary by Director Kenneth Branagh
Language           : English
Default            : No
Forced           : No

Text #7
ID             : 11
Format           : PGS
Muxing mode          : zlib
Codec ID           : S_HDMV/PGS
Codec ID/Info          : Picture based subtitle format used on BDs/HD-DVDs
Duration           : 1 h 47 min
Bit rate           : 70.7 kb/s
Count of elements        : 3645
Stream size          : 54.2 MiB (0%)
Title            : French Commentary by Director Kenneth Branagh
Language           : French
Default            : No
Forced           : No

Text #8
ID             : 12
Format           : PGS
Muxing mode          : zlib
Codec ID           : S_HDMV/PGS
Codec ID/Info          : Picture based subtitle format used on BDs/HD-DVDs
Duration           : 1 h 23 min
Bit rate           : 1 010 b/s
Count of elements        : 50
Stream size          : 615 KiB (0%)
Title            : French Descriptions
Language           : French
Default            : No
Forced           : No

Menu
00:00:00.000         : Chapter 01
00:07:59.312         : Chapter 02
00:15:41.941         : Chapter 03
00:21:27.620         : Chapter 04
00:28:10.772         : Chapter 05
00:42:57.867         : Chapter 06
00:47:30.139         : Chapter 07
00:56:06.405         : Chapter 08
01:00:13.902         : Chapter 09
01:09:02.180         : Chapter 10
01:18:17.902         : Chapter 11
01:23:26.210         : Chapter 12
01:33:06.664         : Chapter 13
01:44:35.311         : Chapter 14






                                                                  
                                                                                                                                                                                                                                                                                 
fc7e7704735e12577c4c090387b80eb0.torrent (24.57 KB, 下载次数: 0)

回复

使用道具 举报

小黑屋|百度云资源论坛

本网站所有资源来自网络,如无意中侵犯了您的权益,请发邮件至 [email protected],立即清除相关链接

GMT+8, 2021-12-7 22:27 , Processed in 0.083241 second(s), 26 queries .

Powered by Discuz! X3.2

© 2001-2013 Comsenz Inc.

快速回复 返回顶部 返回列表