百度云资源论坛

 找回密码
 立即注册
搜索

三十不立拉警报/男人三十拉警报 Jalla.Jalla.2000.1080p.BluRay.x264-USURY 9.41GB .. ...

[复制链接]
admin 发表于 2021-10-17 15:32:44 | 显示全部楼层 |阅读模式
三十不立拉警报/男人三十拉警报 Jalla.Jalla.2000.1080p.BluRay.x264-USURY 9.41GB                                                                                                                                                                              -->
帖子完整标题:三十不立拉警报/男人三十拉警报 Jalla.Jalla.2000.1080p.BluRay.x264-USURY 9.41GB





◎译  名 三十不立拉警报/男人三十拉警报
◎片  名 Jalla! Jalla!
◎年  代 2000
◎产  地 瑞典
◎类  别 剧情 / 喜剧 / 爱情
◎语  言 瑞典语,阿拉伯语
◎上映日期 2000-12-22
◎豆瓣评分 7.1/10 from 162 users
◎ 
◎片  长 88 分钟
◎导  演 约瑟夫·法斯 Josef Fares
◎编  剧 法瑞斯·法瑞斯 Fares Fares / 约瑟夫·法斯 Josef Fares
◎主  演 法瑞斯·法瑞斯 Fares Fares
     托克尔·彼特森 Torkel Petersson
     图娃·诺沃妮 Tuva Novotny
     Laleh Pourkarim Laleh Pourkarim
     Michael Axelsson Michael Axelsson
     Fyr Thorvald Str?mberg Fyr Thorvald Str?mberg
     Laszlo Hago Laszlo Hago
     Jan Fares Jan Fares
     Else-Marie Brandt Else-Marie Brandt
     Ingemar Carlehed Ingemar Carlehed
     Anders Dahl Anders Dahl
     Tommy Andersson Tommy Andersson
     Christer Fj?llstr?m Christer Fj?llstr?m

◎标  签 瑞典 | 喜剧 | 瑞典电影 | 2000 | 北欧电影 | 北欧 | 电影 | JosefFares

◎简  介

  黎巴嫩移民小罗(Fares Fares 饰)和瑞典本地人曼斯(Torkel Petersson 饰)既是同事,又是一对好哥们。两人在当地的动物园干清理工作,工作虽然卑微,但日子无忧无虑,分外惬意。
  
  不过,他们的好日子很快就到头了。小罗和瑞典女孩莉莎(Tuva Novotny 饰)相爱,莉莎希望早日见到小罗的父母,当小罗下定决心时,却发现父母为自己介绍了一个黎巴嫩女孩耶丝敏(Laleh Pourkarim 饰),并且婚期在即;曼斯则在某天突然发现自己不举,羞于见医的他想尽各种办法,却皆以失败告终……
  
  两个好兄弟的烦恼最终能够解决么?
Video
ID             : 1
Format           : AVC
Format/Info          : Advanced Video Codec
Format profile         :
Format settings        : CABAC / 4 Ref Frames
Format settings, CABAC       : Yes
Format settings, Reference frames  : 4 frames
Codec ID           : V_MPEG4/ISO/AVC
Duration           : 1 h 28 min
Bit rate           : 13.7 Mb/s
Width            : 1 920 pixels
Height           : 1 080 pixels
Display aspect ratio       : 16:9
Frame rate mode        : Constant
Frame rate           : 25.000 FPS
Color space          : YUV
Chroma subsampling       : 4:2:0
Bit depth          : 8 bits
Scan type          : Progressive
Bits/(Pixel*Frame)       : 0.265
Stream size          : 8.50 GiB (90%)
Writing library        : x264 core 164 r3075 66a5bc1
Encoding settings        : cabac=1 / ref=4 / deblock=1:-3:-3 / analyse=0x3:0x133 / me=umh / subme=10 / psy=1 / psy_rd=1.00:0.15 / mixed_ref=1 / me_range=24 / chroma_me=1 / trellis=2 / 8x8dct=1 / cqm=0 / deadzone=21,11 / fast_pskip=1 / chroma_qp_offset=-3 / threads=18 / lookahead_threads=3 / sliced_threads=0 / nr=0 / decimate=1 / interlaced=0 / bluray_compat=0 / constrained_intra=0 / bframes=8 / b_pyramid=2 / b_adapt=2 / b_bias=0 / direct=3 / weightb=1 / open_gop=0 / weightp=2 / keyint=250 / keyint_min=25 / scenecut=40 / intra_refresh=0 / rc_lookahead=60 / rc=crf / mbtree=1 / crf=17.5 / qcomp=0.60 / qpmin=0 / qpmax=69 / qpstep=4 / ip_ratio=1.40 / aq=3:0.60
Language           : English
Default            : Yes
Forced           : No
Color range          : Limited
Matrix coefficients        : BT.709

Audio
ID             : 2
Format           : FLAC
Format/Info          : Free Lossless Audio Codec
Codec ID           : A_FLAC
Duration           : 1 h 28 min
Bit rate mode          : Variable
Bit rate           : 1 406 kb/s
Channel(s)           : 2 channels
Channel layout         : L R
Sampling rate          : 48.0 kHz
Frame rate           : 11.719 FPS (4096 SPF)
Bit depth          : 24 bits
Compression mode         : Lossless
Stream size          : 892 MiB (9%)
Writing library        : libFLAC 1.2.1 (UTC 2007-09-17)
Language           : Swedish
Default            : Yes
Forced           : No

Text #1
ID             : 3
Format           : UTF-8
Codec ID           : S_TEXT/UTF8
Codec ID/Info          : UTF-8 Plain Text
Duration           : 1 h 28 min
Bit rate           : 44 b/s
Count of elements        : 780
Stream size          : 28.6 KiB (0%)
Title            : English
Language           : English
Default            : Yes
Forced           : Yes

Text #2
ID             : 4
Format           : PGS
Muxing mode          : zlib
Codec ID           : S_HDMV/PGS
Codec ID/Info          : Picture based subtitle format used on BDs/HD-DVDs
Duration           : 1 h 25 min
Bit rate           : 14.5 kb/s
Count of elements        : 1522
Stream size          : 8.89 MiB (0%)
Title            : Danish
Language           : Danish
Default            : No
Forced           : No

Text #3
ID             : 5
Format           : PGS
Muxing mode          : zlib
Codec ID           : S_HDMV/PGS
Codec ID/Info          : Picture based subtitle format used on BDs/HD-DVDs
Duration           : 1 h 28 min
Bit rate           : 12.9 kb/s
Count of elements        : 1350
Stream size          : 8.11 MiB (0%)
Title            : Finnish
Language           : Finnish
Default            : No
Forced           : No

Text #4
ID             : 6
Format           : PGS
Muxing mode          : zlib
Codec ID           : S_HDMV/PGS
Codec ID/Info          : Picture based subtitle format used on BDs/HD-DVDs
Duration           : 1 h 25 min
Bit rate           : 15.8 kb/s
Count of elements        : 1540
Stream size          : 9.69 MiB (0%)
Title            : Norwegian
Language           : Norwegian
Default            : No
Forced           : No

Text #5
ID             : 7
Format           : PGS
Muxing mode          : zlib
Codec ID           : S_HDMV/PGS
Codec ID/Info          : Picture based subtitle format used on BDs/HD-DVDs
Duration           : 1 h 15 min
Bit rate           : 1 267 b/s
Count of elements        : 124
Stream size          : 703 KiB (0%)
Title            : Swedish forced
Language           : Swedish
Default            : No
Forced           : No

Text #6
ID             : 8
Format           : PGS
Muxing mode          : zlib
Codec ID           : S_HDMV/PGS
Codec ID/Info          : Picture based subtitle format used on BDs/HD-DVDs
Duration           : 1 h 25 min
Bit rate           : 16.8 kb/s
Count of elements        : 1694
Stream size          : 10.3 MiB (0%)
Title            : Swedish SDH
Language           : Swedish
Default            : No
Forced           : No

Menu
00:00:00.000         : en:00:00:00.000
00:11:09.080         : en:00:11:09.080
00:23:53.120         : en:00:23:53.120
00:36:21.040         : en:00:36:21.040
00:47:44.200         : en:00:47:44.200
01:00:24.480         : en:01:00:24.480
01:12:17.120         : en:01:12:17.120
01:26:09.200         : en:01:26:09.200






                                                                  
                                                                                                                                                                                                                                                                                 
1c0d338b092bb5be3d72d0ed60d16db5.torrent (24.25 KB, 下载次数: 0)

回复

使用道具 举报

小黑屋|百度云资源论坛

本网站所有资源来自网络,如无意中侵犯了您的权益,请发邮件至 [email protected],立即清除相关链接

GMT+8, 2021-12-7 20:40 , Processed in 0.102466 second(s), 26 queries .

Powered by Discuz! X3.2

© 2001-2013 Comsenz Inc.

快速回复 返回顶部 返回列表