百度云资源论坛

 找回密码
 立即注册
搜索

隔壁的女孩 Deadly.Friend.1986.1080p.BluRay.x264.DTS-FGT 8.23GB

[复制链接]
admin 发表于 2021-10-17 15:32:44 | 显示全部楼层 |阅读模式
隔壁的女孩 Deadly.Friend.1986.1080p.BluRay.x264.DTS-FGT 8.23GB                                                                                                                                                                              -->
帖子完整标题:隔壁的女孩 Deadly.Friend.1986.1080p.BluRay.x264.DTS-FGT 8.23GB




◎译  名 隔壁的女孩
◎片  名 Deadly Friend
◎年  代 1986
◎产  地 美国
◎类  别 科幻 / 悬疑 / 恐怖
◎语  言 英语
◎上映日期 1986-10-10
◎豆瓣评分 6.5/10 from 117 users
◎ 
◎片  长 91 分钟
◎导  演 韦斯·克雷文 Wes Craven
◎编  剧 布鲁斯·乔尔·鲁宾 Bruce Joel Rubin
◎主  演 马修·拉博托 Matthew Laborteaux
     克里斯蒂·斯旺森 Kristy Swanson
     迈克尔·沙拉特 Michael Sharrett

◎标  签 恐怖 | 科幻 | 美国 | 惊悚 | 美国电影 | 1986 | 恐怖+鬼片 | 韦斯·克雷文

◎简  介

  Paul Conway自己设计制造了一架会思考的机器人,起名“哔哔”(BB)。哔哔善解人意讨人喜欢。万圣节晚上,Paul、Tom、Samantha及哔哔想利用遇节无禁忌的机会,闯入老处女Elvira Parker小姐的前院,没想到她不通情理朝哔哔开枪,打得粉碎,只剩下电脑晶片无损。不久感恩节来临,Paul邀Samantha共进晚餐,Samantha因此被继父打落楼梯,脑部严重撞伤送医诊断,因脑死而回天乏术。Paul得Tom相助,于Samantha脑中植入哔哔电脑微晶片,Samantha因而复活,然而完全为哔哔之思考模式,哔哔怨恨Samantha的继父和Elvira Parker小姐,展开复仇……
Video
ID             : 1
Format           : AVC
Format/Info          : Advanced Video Codec
Format profile         :
Format settings        : CABAC / 4 Ref Frames
Format settings, CABAC       : Yes
Format settings, Reference frames  : 4 frames
Codec ID           : V_MPEG4/ISO/AVC
Duration           : 1 h 30 min
Bit rate           : 11.5 Mb/s
Width            : 1 920 pixels
Height           : 1 036 pixels
Display aspect ratio       : 1.85:1
Frame rate mode        : Constant
Frame rate           : 23.976 (24000/1001/189150) FPS
Color space          : YUV
Chroma subsampling       : 4:2:0
Bit depth          : 8 bits
Scan type          : Progressive
Bits/(Pixel*Frame)       : 0.241
Stream size          : 7.27 GiB (88%)
Writing library        : x264 core 148 r2795M aaa9aa8
Encoding settings        : cabac=1 / ref=4 / deblock=1:-2:-2 / analyse=0x3:0x113 / me=umh / subme=9 / psy=1 / psy_rd=1.00:0.15 / mixed_ref=1 / me_range=16 / chroma_me=1 / trellis=2 / 8x8dct=1 / cqm=0 / deadzone=21,11 / fast_pskip=1 / chroma_qp_offset=-3 / threads=24 / lookahead_threads=3 / sliced_threads=0 / nr=0 / decimate=1 / interlaced=0 / bluray_compat=0 / constrained_intra=0 / bframes=3 / b_pyramid=2 / b_adapt=1 / b_bias=0 / direct=3 / weightb=1 / open_gop=0 / weightp=2 / keyint=250 / keyint_min=25 / scenecut=40 / intra_refresh=0 / rc_lookahead=50 / rc=2pass / mbtree=1 / bitrate=11500 / ratetol=1.0 / qcomp=0.60 / qpmin=0 / qpmax=69 / qpstep=4 / cplxblur=20.0 / qblur=0.5 / vbv_maxrate=31250 / vbv_bufsize=31250 / nal_hrd=none / filler=0 / ip_ratio=1.40 / aq=1:1.00
Language           : English
Default            : Yes
Forced           : No

Audio
ID             : 2
Format           : DTS
Format/Info          : Digital Theater Systems
Codec ID           : A_DTS
Duration           : 1 h 30 min
Bit rate mode          : Constant
Bit rate           : 1 509 kb/s
Channel(s)           : 2 channels
Channel layout         : L R
Sampling rate          : 48.0 kHz
Frame rate           : 93.750 FPS (512 SPF)
Bit depth          : 24 bits
Compression mode         : Lossy
Stream size          : 978 MiB (12%)
Language           : English
Default            : Yes
Forced           : No

Text
ID             : 3
Format           : UTF-8
Codec ID           : S_TEXT/UTF8
Codec ID/Info          : UTF-8 Plain Text
Duration           : 1 h 30 min
Bit rate           : 37 b/s
Count of elements        : 1206
Stream size          : 24.8 KiB (0%)
Language           : English
Default            : Yes
Forced           : No

Menu
00:00:00.000         : en:Chapter 01
00:06:57.125         : en:Chapter 02
00:13:40.778         : en:Chapter 03
00:21:11.061         : en:Chapter 04
00:30:46.719         : en:Chapter 05
00:37:19.320         : en:Chapter 06
00:46:04.553         : en:Chapter 07
00:54:13.875         : en:Chapter 08
01:05:45.608         : en:Chapter 09
01:12:56.246         : en:Chapter 10
01:22:17.766         : en:Chapter 11
01:28:24.382         : en:Chapter 12
01:30:34.095         : en:Chapter 13





                                                                  
                                                                                                                                                                                                                                                                                 
4fac83cf6000e8350c117f34ddab5d6d.torrent (21.19 KB, 下载次数: 0)

回复

使用道具 举报

小黑屋|百度云资源论坛

本网站所有资源来自网络,如无意中侵犯了您的权益,请发邮件至 [email protected],立即清除相关链接

GMT+8, 2021-12-7 21:46 , Processed in 0.097104 second(s), 30 queries .

Powered by Discuz! X3.2

© 2001-2013 Comsenz Inc.

快速回复 返回顶部 返回列表