百度云资源论坛

 找回密码
 立即注册
搜索

时栈中的指针/时光的针脚 Needle.in.a.Timestack.2021.1080p.BluRay.x264.DTS-HD.MA.5 ...

[复制链接]
admin 发表于 2021-10-17 15:32:44 | 显示全部楼层 |阅读模式
时栈中的指针/时光的针脚 Needle.in.a.Timestack.2021.1080p.BluRay.x264.DTS-HD.MA.5.1-MT 13.18                                                                                                                                                                              -->
帖子完整标题:时栈中的指针/时光的针脚 Needle.in.a.Timestack.2021.1080p.BluRay.x264.DTS-HD.MA.5.1-MT 13.18GB




◎译  名 时栈中的指针/时光的针脚
◎片  名 Needle in a Timestack
◎年  代 2021
◎产  地 美国
◎类  别 科幻
◎语  言 英语
◎上映日期 2021-10-15(美国)
◎豆瓣评分 /10 from 0 users
◎ 
◎导  演 约翰·里德利 John Ridley
◎编  剧 约翰·里德利 John Ridley / 罗伯特·西尔弗伯格 Robert Silverberg
◎主  演 辛西娅·艾莉佛 Cynthia Erivo
     蕾斯拉·德·奥利维拉 Laysla De Oliveira
     奥兰多·布鲁姆 Orlando Bloom
     小莱斯利·奥多姆 Leslie Odom Jr.
     亚历桑德罗·朱利安尼 Alessandro Juliani
     芙蕾达·平托 Freida Pinto
     神奈川宏幸 Hiro Kanagawa
     乔安娜·纽马奇 Johannah Newmarch
     詹姆斯·柯克 James Kirk
     伊丽莎白·韦恩斯坦 Elizabeth Weinstein
     Jadyn Wong Jadyn Wong

◎标  签 科幻 | Orlando | 爱情 | 待看 | Bloom | 翻拍 | 美国 | 影

◎简  介

  奥兰多·布鲁姆、芙蕾达·平托、小莱斯利·奥多姆、Cynthia Erivo将主演约翰·雷德利(《美国重案》)执导新片《时栈中的指针》(Needle in a Timestack),Bron Studios制作。
  
  基于Robert Silverberg写的短篇,雷德利改编剧本,设定在一个存在时间旅行的世界里,一对夫妻努力维系着婚姻,过去和现在总是摇摆不定。
Video
ID             : 1
Format           : AVC
Format/Info          : Advanced Video Codec
Format profile         :
Format settings        : CABAC / 5 Ref Frames
Format settings, CABAC       : Yes
Format settings, Reference frames  : 5 frames
Codec ID           : V_MPEG4/ISO/AVC
Duration           : 1 h 51 min
Bit rate           : 13.8 Mb/s
Width            : 1 920 pixels
Height           : 804 pixels
Display aspect ratio       : 2.40:1
Frame rate mode        : Constant
Frame rate           : 23.976 (24000/1001/189150) FPS
Color space          : YUV
Chroma subsampling       : 4:2:0
Bit depth          : 8 bits
Scan type          : Progressive
Bits/(Pixel*Frame)       : 0.374
Stream size          : 10.8 GiB (82%)
Writing library        : x264 core 157 r2938 2b00a84Mod
Encoding settings        : cabac=1 / ref=5 / deblock=1:-3:-3 / analyse=0x3:0x133 / me=umh / subme=10 / psy=1 / psy_rd=1.05:0.00 / mixed_ref=1 / me_range=32 / chroma_me=1 / trellis=2 / 8x8dct=1 / cqm=0 / deadzone=21,11 / fast_pskip=0 / chroma_qp_offset=-2 / threads=12 / lookahead_threads=2 / sliced_threads=0 / nr=0 / decimate=0 / interlaced=0 / bluray_compat=0 / constrained_intra=0 / bframes=8 / b_pyramid=2 / b_adapt=2 / b_bias=0 / direct=3 / weightb=1 / open_gop=0 / weightp=2 / keyint=250 / keyint_min=24 / scenecut=40 / intra_refresh=0 / rc_lookahead=250 / rc=crf / mbtree=0 / crf=16.8 / qcomp=0.60 / qpmin=0 / qpmax=69 / qpstep=4 / vbv_maxrate=62500 / vbv_bufsize=78125 / crf_max=0.0 / nal_hrd=none / filler=0 / ip_ratio=1.30 / pb_ratio=1.20 / aq=3:0.80
Language           : English
Default            : Yes
Forced           : No
Color range          : Limited
Color primaries        : BT.709
Matrix coefficients        : BT.709

Audio
ID             : 2
Format           : DTS XLL
Format/Info          : Digital Theater Systems
Commercial name        : DTS-HD Master Audio
Codec ID           : A_DTS
Duration           : 1 h 51 min
Bit rate mode          : Variable
Bit rate           : 3 060 kb/s
Channel(s)           : 6 channels
Channel layout         : C L R Ls Rs LFE
Sampling rate          : 48.0 kHz
Frame rate           : 93.750 FPS (512 SPF)
Bit depth          : 24 bits
Compression mode         : Lossless
Stream size          : 2.38 GiB (18%)
Language           : English
Default            : Yes
Forced           : No

Text #1
ID             : 3
Format           : UTF-8
Codec ID           : S_TEXT/UTF8
Codec ID/Info          : UTF-8 Plain Text
Duration           : 1 h 47 min
Bit rate           : 51 b/s
Count of elements        : 1161
Stream size          : 40.4 KiB (0%)
Title            : SRT
Language           : English
Default            : Yes
Forced           : No

Text #2
ID             : 4
Format           : PGS
Muxing mode          : zlib
Codec ID           : S_HDMV/PGS
Codec ID/Info          : Picture based subtitle format used on BDs/HD-DVDs
Duration           : 1 h 47 min
Bit rate           : 34.2 kb/s
Count of elements        : 2541
Stream size          : 26.3 MiB (0%)
Language           : English
Default            : No
Forced           : No

Menu
00:00:00.000         : en:Chapter 01
00:04:31.188         : en:Chapter 02
00:16:55.181         : en:Chapter 03
00:24:36.558         : en:Chapter 04
00:31:19.503         : en:Chapter 05
00:38:45.907         : en:Chapter 06
00:45:33.230         : en:Chapter 07
00:49:52.656         : en:Chapter 08
00:53:35.504         : en:Chapter 09
01:01:07.747         : en:Chapter 10
01:06:32.822         : en:Chapter 11
01:11:25.656         : en:Chapter 12
01:19:39.441         : en:Chapter 13
01:28:06.823         : en:Chapter 14
01:32:47.395         : en:Chapter 15
01:38:47.755         : en:Chapter 16




                                                                  
                                                                                                                                                                                                                                                                                 
fac526461c047dd03d0dbaf802d26d85.torrent (17.13 KB, 下载次数: 0)

回复

使用道具 举报

小黑屋|百度云资源论坛

本网站所有资源来自网络,如无意中侵犯了您的权益,请发邮件至 [email protected],立即清除相关链接

GMT+8, 2021-12-7 22:48 , Processed in 0.073861 second(s), 26 queries .

Powered by Discuz! X3.2

© 2001-2013 Comsenz Inc.

快速回复 返回顶部 返回列表