百度云资源论坛

 找回密码
 立即注册
搜索

[BD-4K] 最后的决斗/最后的对决 The.Last.Duel.2021.2160p.WEB-DL.x265.10bit.HDR.DDP5.1.Atmo ...

[复制链接]
admin 发表于 2021-12-1 19:33:20 | 显示全部楼层 |阅读模式
最后的决斗/最后的对决 The.Last.Duel.2021.2160p.WEB-DL.x265.10bit.HDR.DDP5.1.Atmos-CM 16.17                                                                                                                                                                              -->
帖子完整标题:最后的决斗/最后的对决 The.Last.Duel.2021.2160p.WEB-DL.x265.10bit.HDR.DDP5.1.Atmos-CM 16.17GB





◎译  名 最后的决斗/最后的对决/最後絕鬥(港)/终极决斗
◎片  名 The Last Duel
◎年  代 2021
◎产  地 美国,英国
◎类  别 剧情 / 动作 / 惊悚 / 历史
◎语  言 英语,德语
◎上映日期 2021-09-10(威尼斯电影节) / 2021-10-15(美国)
◎豆瓣评分 8.6/10 from 2791 users
◎ 
◎片  长 152分钟
◎导  演 雷德利·斯科特 Ridley Scott
◎编  剧 妮可·哈罗芬瑟 Nicole Holofcener / 本·阿弗莱克 Ben Affleck / 马特·达蒙 Matt Damon / 埃里克·贾格 Eric Jager
◎主  演 朱迪·科默 Jodie Comer
     马特·达蒙 Matt Damon
     亚当·德赖弗 Adam Driver
     本·阿弗莱克 Ben Affleck
     哈丽特·瓦尔特 Harriet Walter
     埃里克斯·劳瑟 Alex Lawther
     马尔顿·索克斯 Marton Csokas
     威廉·休斯顿 William Houston
     奥利弗·科顿 Oliver Cotton
     内森奈尔·帕克 Nathaniel Parker
     塔露拉·哈登 Tallulah Haddon
     布瑞恩尼汉娜 Bryony Hannah
     伊恩·皮里 Ian Pirie
     迈克尔·麦克埃尔哈顿 Michael McElhatton
     山姆·哈兹尔丁 Sam Hazeldine
     克里夫·罗素 Clive Russell
     朱利安·弗思 Julian Firth
     柔伊·布鲁诺 Zoé Bruneau
     亚当·那加提斯 Adam Nagaitis
     卡伊姆赫·O'马莉 Caoimhe O'Malley
     约翰·卡瓦纳 John Kavanagh
     泽利科·伊万内克 Zeljko Ivanek
     克莱尔·邓恩 Clare Dunne
     保罗·班迪 Paul Bandey
     布朗提思·佐杜洛夫斯基 Brontis Jodorowsky
     Peter Hudson Peter Hudson
     Dimitri Michelsen Dimitri Michelsen
     科林·大卫·里斯 Colin David Reese
     勃斯科·霍根 Bosco Hogan
     布莱恩F.穆尔维 Brian F. Mulvey

◎标  签 历史 | 美国 | 剧情 | 2021 | 战争 | 中世纪 | 女性 | 英国

◎简  介

  这场复仇围绕着达蒙、阿弗莱克饰演的一对最好的朋友展开。诺曼骑士Jean de Carrouges和乡绅Jacques Le Gris是最好的朋友。然而Jean战争归来后却指控Jacques强奸了他的妻子Margerite de Carrouges(科默饰)。没有人相信这个女子的遭遇,Jean向法国国王请愿,取消维护Jacques的伯爵Pierre d’Anencon的决定。而传递下来的国王决定是让这对好友决一死战。活着的人即为胜利者,这也将成为上帝的旨意。而如果Jean失败了,她的妻子将被焚烧,作为她“诬告”Jacques的惩罚。
Video
ID             : 1
Format           : HEVC
Format/Info          : High Efficiency Video Coding
Format profile         : Main @High
HDR format           : SMPTE ST 2086, HDR10 compatible
Codec ID           : V_MPEGH/ISO/HEVC
Duration           : 2 h 32 min
Bit rate           : 14.4 Mb/s
Width            : 3 840 pixels
Height           : 1 608 pixels
Display aspect ratio       : 2.40:1
Frame rate mode        : Constant
Frame rate           : 23.976 FPS
Color space          : YUV
Chroma subsampling       : 4:2:0 (Type 2)
Bit depth          : 10 bits
Bits/(Pixel*Frame)       : 0.097
Stream size          : 15.4 GiB (95%)
Default            : Yes
Forced           : No
Color range          : Limited
Color primaries        : BT.2020
Transfer characteristics     : PQ
Matrix coefficients        : BT.2020 non-constant
Mastering display color primaries  : BT.2020
Mastering display luminance    : min: 0.0050 cd/m2, max: 1000 cd/m2
Maximum Content Light Level    : 1088 cd/m2
Maximum Frame-Average Light Level  : 131 cd/m2

Audio
ID             : 2
Format           : E-AC-3 JOC
Format/Info          : Enhanced AC-3 with Joint Object Coding
Commercial name        : Dolby Digital Plus with Dolby Atmos
Codec ID           : A_EAC3
Duration           : 2 h 32 min
Bit rate mode          : Constant
Bit rate           : 768 kb/s
Channel(s)           : 6 channels
Channel layout         : L R C LFE Ls Rs
Sampling rate          : 48.0 kHz
Frame rate           : 31.250 FPS (1536 SPF)
Compression mode         : Lossy
Stream size          : 839 MiB (5%)
Title            : English
Language           : English
Service kind         : Complete Main
Default            : No
Forced           : No
Complexity index         : 16
Number of dynamic objects      : 15
Bed channel count        : 1 channel
Bed channel configuration      : LFE

Text #1
ID             : 3
Format           : UTF-8
Codec ID           : S_TEXT/UTF8
Codec ID/Info          : UTF-8 Plain Text
Duration           : 23 s 232 ms
Bit rate           : 49 b/s
Count of elements        : 6
Stream size          : 143 Bytes (0%)
Title            : English [Forced]
Language           : English
Default            : No
Forced           : Yes

Text #2
ID             : 4
Format           : UTF-8
Codec ID           : S_TEXT/UTF8
Codec ID/Info          : UTF-8 Plain Text
Duration           : 2 h 22 min
Bit rate           : 47 b/s
Count of elements        : 1684
Stream size          : 49.7 KiB (0%)
Title            : English [SDH]
Language           : English
Default            : No
Forced           : No

Text #3
ID             : 5
Format           : UTF-8
Codec ID           : S_TEXT/UTF8
Codec ID/Info          : UTF-8 Plain Text
Duration           : 2 h 31 min
Bit rate           : 47 b/s
Count of elements        : 1708
Stream size          : 52.8 KiB (0%)
Title            : French Canadian
Language           : French
Default            : No
Forced           : No

Text #4
ID             : 6
Format           : UTF-8
Codec ID           : S_TEXT/UTF8
Codec ID/Info          : UTF-8 Plain Text
Duration           : 2 h 22 min
Bit rate           : 47 b/s
Count of elements        : 1691
Stream size          : 49.2 KiB (0%)
Title            : Spanish
Language           : Spanish
Default            : No
Forced           : No





                                                                  
                                                                                                                                                                                                                                                                                 
dc6912498b41744c9589f48a97208b39.torrent (20.87 KB, 下载次数: 0)

回复

使用道具 举报

小黑屋|百度云资源论坛

本网站所有资源来自网络,如无意中侵犯了您的权益,请发邮件至 [email protected],立即清除相关链接

GMT+8, 2022-1-18 01:43 , Processed in 0.095311 second(s), 30 queries .

Powered by Discuz! X3.2

© 2001-2013 Comsenz Inc.

快速回复 返回顶部 返回列表