百度云资源论坛

 找回密码
 立即注册
搜索

[BD-4K] 760号犯人/760号囚犯 The.Mauritanian.2021.2160p.BluRay.x264.8bit.SDR.DTS-HD.MA.7. ...

[复制链接]
admin 发表于 2021-12-2 16:44:37 | 显示全部楼层 |阅读模式
760号犯人/760号囚犯 The.Mauritanian.2021.2160p.BluRay.x264.8bit.SDR.DTS-HD.MA.7.1-SWTY                                                                                                                                                                              -->
帖子完整标题:760号犯人/760号囚犯 The.Mauritanian.2021.2160p.BluRay.x264.8bit.SDR.DTS-HD.MA.7.1-SWTYBLZ 36.40GB





◎译  名 760号犯人/760号囚犯/Guantanamo Diary/Prisoner 760/失控的审判(台)/毛里塔尼亚人/第760号囚犯/诬罪审判(港)
◎片  名 The Mauritanian
◎年  代 2021
◎产  地 英国,美国
◎类  别 剧情 / 惊悚
◎语  言 法语,阿拉伯语,英语
◎上映日期 2021-02-12(美国)
◎豆瓣评分 7.3/10 from 5527 users
◎ 
◎片  长 129分钟
◎导  演 凯文·麦克唐纳 Kevin Macdonald
◎编  剧 迈克尔·布朗纳 Michael Bronner / 罗里·海恩斯 Rory Haines / 苏哈·诺什瓦尼 Sohrab Noshirvani / 穆罕默德·乌尔德·萨拉希 Mohamedou Ould Salahi / 拉里·西姆斯 Larry Siems
◎主  演 塔哈·拉希姆 Tahar Rahim
     朱迪·福斯特 Jodie Foster
     本尼迪克特·康伯巴奇 Benedict Cumberbatch
     扎克瑞·莱维 Zachary Levi
     谢琳·伍德蕾 Shailene Woodley
     沙莫·阿斯玛尼 Saamer Usmani
     克里·约翰逊 Corey Johnson
     马修·马什 Matthew Marsh
     大卫·芬恩 David Fynn
     安德烈·雅各布斯 Andre Jacobs
     兰利·柯克伍德 Langley Kirkwood
     史蒂夫·马克 Stevel Marc
     罗伯特·霍布斯 Robert Hobbs
     梅丽莎·海登 Melissa Haiden
     阿拉·萨菲 Alaa Safi
     埃文·亨斯特 Evan Hengst
     达伦-迈耶 Darron Meyer
     弗朗西斯·乔勒 Francis Chouler
     克莱顿·博伊德 Clayton Boyd
     南希·霍兰德 Nancy Hollander

◎标  签 美国 | 剧情 | 历史 | 朱迪·福斯特 | 2021 | 本尼迪克特·康伯巴奇 | 美国电影 | 谢琳·伍德蕾

◎简  介

  影片改编自Mohamedou Ould Slahi的回忆录《关塔那摩日记》,讲述Slahi(塔哈饰)被美国政府俘虏,在毫无指控与判决的情况下被关进了监狱,他失去了希望。Slahi寻得辩护律师南希·霍兰德(福斯特饰)与助手特里·邓肯(伍德蕾饰)的帮助,他们在面对无数障碍的情况下,一同追求正义。在富有争议的主张及斯图尔特·库什中尉(康伯巴奇饰)揭露的证据下,一个令人震惊的阴谋露出水面。

◎获奖情况

  第78届金球奖 ?(2021)
  电影类剧情片最佳男主角(提名) 塔哈·拉希姆
  电影类最佳女配角 朱迪·福斯特
  
  第74届英国电影学院奖 ?(2021)
  电影奖最佳影片(提名)
  电影奖最佳英国影片(提名) 凯文·麦克唐纳
  电影奖最佳男主角(提名) 塔哈·拉希姆
  电影奖最佳改编剧本(提名)
  电影奖最佳摄影(提名)
  
  第41届伦敦影评人协会奖 ?(2021)
  年度电影(提名)
  年度导演(提名) 凯文·麦克唐纳
  年度男主角(提名) 塔哈·拉希姆
Video
ID             : 1
Format           : AVC
Format/Info          : Advanced Video Codec
Format profile         :
Format settings        : CABAC / 5 Ref Frames
Format settings, CABAC       : Yes
Format settings, Reference frames  : 5 frames
Codec ID           : V_MPEG4/ISO/AVC
Duration           : 2 h 9 min
Bit rate           : 35.5 Mb/s
Width            : 3 840 pixels
Height           : 2 076 pixels
Display aspect ratio       : 1.85:1
Frame rate mode        : Constant
Frame rate           : 23.976 (24000/1001/189150) FPS
Color space          : YUV
Chroma subsampling       : 4:2:0
Bit depth          : 8 bits
Scan type          : Progressive
Bits/(Pixel*Frame)       : 0.186
Stream size          : 32.1 GiB (88%)
Writing library        : x264 core 157 r2935 545de2f
Encoding settings        : cabac=1 / ref=5 / deblock=1:-1:-1 / analyse=0x3:0x113 / me=umh / subme=10 / psy=1 / psy_rd=1.00:0.15 / mixed_ref=1 / me_range=48 / chroma_me=1 / trellis=2 / 8x8dct=1 / cqm=0 / deadzone=21,11 / fast_pskip=1 / chroma_qp_offset=-3 / threads=48 / lookahead_threads=4 / sliced_threads=0 / nr=0 / decimate=0 / interlaced=0 / bluray_compat=0 / constrained_intra=0 / bframes=3 / b_pyramid=2 / b_adapt=2 / b_bias=0 / direct=3 / weightb=1 / open_gop=0 / weightp=2 / keyint=250 / keyint_min=23 / scenecut=40 / intra_refresh=0 / rc_lookahead=50 / rc=crf / mbtree=1 / crf=18.0 / qcomp=0.60 / qpmin=0 / qpmax=69 / qpstep=4 / ip_ratio=1.40 / aq=1:1.00
Default            : Yes
Forced           : No

Audio #1
ID             : 2
ID in the original source medium   : 4353 (0x1101)
Format           : DTS XLL
Format/Info          : Digital Theater Systems
Commercial name        : DTS-HD Master Audio
Codec ID           : A_DTS
Duration           : 2 h 9 min
Bit rate mode          : Variable
Bit rate           : 4 026 kb/s
Channel(s)           : 8 channels
Channel layout         : C L R LFE Lb Rb Lss Rss
Sampling rate          : 48.0 kHz
Frame rate           : 93.750 FPS (512 SPF)
Bit depth          : 24 bits
Compression mode         : Lossless
Stream size          : 3.64 GiB (10%)
Title            : DTS-HD MA 7.1
Language           : English
Default            : Yes
Forced           : No
Original source medium       : Blu-ray

Audio #2
ID             : 3
Format           : AC-3
Format/Info          : Audio Coding 3
Commercial name        : Dolby Digital
Codec ID           : A_AC3
Duration           : 2 h 9 min
Bit rate mode          : Constant
Bit rate           : 640 kb/s
Channel(s)           : 6 channels
Channel layout         : L R C LFE Ls Rs
Sampling rate          : 48.0 kHz
Frame rate           : 31.250 FPS (1536 SPF)
Compression mode         : Lossy
Stream size          : 592 MiB (2%)
Language           : English
Service kind         : Complete Main
Default            : Yes
Forced           : No

Text #1
ID             : 4
Format           : UTF-8
Codec ID           : S_TEXT/UTF8
Codec ID/Info          : UTF-8 Plain Text
Duration           : 2 h 7 min
Bit rate           : 6 b/s
Count of elements        : 228
Stream size          : 6.46 KiB (0%)
Title            : FORCED
Language           : English
Default            : No
Forced           : Yes

Text #2
ID             : 5
Format           : UTF-8
Codec ID           : S_TEXT/UTF8
Codec ID/Info          : UTF-8 Plain Text
Duration           : 2 h 7 min
Bit rate           : 61 b/s
Count of elements        : 1680
Stream size          : 57.2 KiB (0%)
Language           : English
Default            : Yes
Forced           : No

Text #3
ID             : 6
Format           : UTF-8
Codec ID           : S_TEXT/UTF8
Codec ID/Info          : UTF-8 Plain Text
Duration           : 2 h 7 min
Bit rate           : 66 b/s
Count of elements        : 1847
Stream size          : 62.6 KiB (0%)
Title            : SDH
Language           : English
Default            : No
Forced           : No

Text #4
ID             : 7
ID in the original source medium   : 4768 (0x12A0)
Format           : PGS
Muxing mode          : zlib
Codec ID           : S_HDMV/PGS
Codec ID/Info          : Picture based subtitle format used on BDs/HD-DVDs
Duration           : 2 h 4 min
Bit rate           : 4 113 b/s
Count of elements        : 504
Stream size          : 3.66 MiB (0%)
Language           : French
Default            : No
Forced           : No
Original source medium       : Blu-ray

Text #5
ID             : 8
ID in the original source medium   : 4769 (0x12A1)
Format           : PGS
Muxing mode          : zlib
Codec ID           : S_HDMV/PGS
Codec ID/Info          : Picture based subtitle format used on BDs/HD-DVDs
Duration           : 2 h 6 min
Bit rate           : 26.0 kb/s
Count of elements        : 3158
Stream size          : 23.6 MiB (0%)
Language           : French
Default            : No
Forced           : No
Original source medium       : Blu-ray

Text #6
ID             : 9
ID in the original source medium   : 4770 (0x12A2)
Format           : PGS
Muxing mode          : zlib
Codec ID           : S_HDMV/PGS
Codec ID/Info          : Picture based subtitle format used on BDs/HD-DVDs
Duration           : 2 h 9 min
Bit rate           : 32.6 kb/s
Count of elements        : 4487
Stream size          : 30.1 MiB (0%)
Language           : French
Default            : No
Forced           : No
Original source medium       : Blu-ray

Menu
00:00:00.000         : en:Chapter 01
00:05:54.312         : en:Chapter 02
00:13:11.207         : en:Chapter 03
00:23:20.482         : en:Chapter 04
00:28:50.895         : en:Chapter 05
00:37:40.675         : en:Chapter 06
00:44:12.358         : en:Chapter 07
00:54:47.701         : en:Chapter 08
01:02:53.186         : en:Chapter 09
01:12:17.791         : en:Chapter 10
01:21:22.669         : en:Chapter 11
01:30:59.912         : en:Chapter 12
01:39:35.469         : en:Chapter 13
01:45:45.881         : en:Chapter 14
01:53:48.071         : en:Chapter 15
02:03:57.430         : en:Chapter 16

[/url]

[/url]

[/url]

[/url]

[/url]




                                                                  
                                                                                                                                                                                                                                                                                 
0469c2736e7ae2969ca1d8b9e9389c19.torrent (46.22 KB, 下载次数: 0)

回复

使用道具 举报

小黑屋|百度云资源论坛

本网站所有资源来自网络,如无意中侵犯了您的权益,请发邮件至 [email protected],立即清除相关链接

GMT+8, 2022-1-18 01:44 , Processed in 0.075698 second(s), 28 queries .

Powered by Discuz! X3.2

© 2001-2013 Comsenz Inc.

快速回复 返回顶部 返回列表