百度云资源论坛

 找回密码
 立即注册
搜索

哀悼巢穴 The.Bewailing.2021.720p.BluRay.x264-FREEMAN 2.40GB

[复制链接]
admin 发表于 2021-12-4 18:04:29 | 显示全部楼层 |阅读模式
哀悼巢穴 The.Bewailing.2021.720p.BluRay.x264-FREEMAN 2.40GB                                                                                                                                                                              -->
帖子完整标题:哀悼巢穴 The.Bewailing.2021.720p.BluRay.x264-FREEMAN 2.40GB





◎译  名 哀悼巢穴/The Bewailing
◎片  名 The Nest
◎年  代 2021
◎产  地 美国
◎类  别 惊悚
◎语  言 英语
◎上映日期 2021-07-06(美国)
◎豆瓣评分 /10 from 0 users
◎ 
◎主  演 迪·沃伦斯 Dee Wallace
     萨拉·纳夫拉蒂尔 Sarah Navratil

◎标  签 恐怖 | 2021 | 美国 | 惊悚

◎简  介

  As a mother becomes suspicious that her daughter may be infected by a parasitic creature, she is thrust into a nightmare as the people she trusts most push her into a chasm of drug addiction, self-destruction, and devastating sacrifice.
Video
ID             : 1
Format           : AVC
Format/Info          : Advanced Video Codec
Format profile         :
Format settings        : CABAC / 8 Ref Frames
Format settings, CABAC       : Yes
Format settings, Reference frames  : 8 frames
Codec ID           : V_MPEG4/ISO/AVC
Duration           : 1 h 44 min
Bit rate           : 2 650 kb/s
Width            : 1 280 pixels
Height           : 574 pixels
Display aspect ratio       : 2.25:1
Frame rate mode        : Constant
Frame rate           : 23.976 (24000/1001/189150) FPS
Color space          : YUV
Chroma subsampling       : 4:2:0
Bit depth          : 8 bits
Scan type          : Progressive
Bits/(Pixel*Frame)       : 0.150
Stream size          : 1.93 GiB (81%)
Writing library        : x264 core 164 r3075 66a5bc1
Encoding settings        : cabac=1 / ref=8 / deblock=1:-3:-3 / analyse=0x3:0x133 / me=umh / subme=9 / psy=1 / psy_rd=1.00:0.00 / mixed_ref=1 / me_range=16 / chroma_me=1 / trellis=2 / 8x8dct=1 / cqm=0 / deadzone=21,11 / fast_pskip=0 / chroma_qp_offset=-2 / threads=18 / lookahead_threads=1 / sliced_threads=0 / nr=0 / decimate=1 / interlaced=0 / bluray_compat=0 / constrained_intra=0 / bframes=3 / b_pyramid=2 / b_adapt=2 / b_bias=0 / direct=3 / weightb=1 / open_gop=0 / weightp=2 / keyint=250 / keyint_min=23 / scenecut=40 / intra_refresh=0 / rc_lookahead=60 / rc=crf / mbtree=1 / crf=17.0 / qcomp=0.60 / qpmin=0 / qpmax=69 / qpstep=4 / ip_ratio=1.40 / aq=3:1.00
Default            : Yes
Forced           : No
Color range          : Limited
Matrix coefficients        : BT.709

Audio
ID             : 2
Format           : AC-3
Format/Info          : Audio Coding 3
Commercial name        : Dolby Digital
Codec ID           : A_AC3
Duration           : 1 h 44 min
Bit rate mode          : Constant
Bit rate           : 640 kb/s
Channel(s)           : 6 channels
Channel layout         : L R C LFE Ls Rs
Sampling rate          : 48.0 kHz
Frame rate           : 31.250 FPS (1536 SPF)
Compression mode         : Lossy
Stream size          : 478 MiB (19%)
Language           : English
Service kind         : Complete Main
Default            : Yes
Forced           : No

Menu
00:00:00.000         : en:00:00:00.000
00:08:51.406         : en:00:08:51.406
00:17:34.971         : en:00:17:34.971
00:25:44.376         : en:00:25:44.376
00:35:31.671         : en:00:35:31.671
00:43:38.407         : en:00:43:38.407
00:54:27.139         : en:00:54:27.139
01:03:46.197         : en:01:03:46.197
01:13:12.972         : en:01:13:12.972
01:23:30.130         : en:01:23:30.130
01:33:23.932         : en:01:33:23.932
01:42:13.210         : en:01:42:13.210






                                                                  
                                                                                                                                                                                                                                                                                 
674dc216ac908ff1aa6beabe2312d59b.torrent (24.68 KB, 下载次数: 0)

回复

使用道具 举报

小黑屋|百度云资源论坛

本网站所有资源来自网络,如无意中侵犯了您的权益,请发邮件至 [email protected],立即清除相关链接

GMT+8, 2022-8-12 20:30 , Processed in 0.132062 second(s), 30 queries .

Powered by Discuz! X3.2

© 2001-2013 Comsenz Inc.

快速回复 返回顶部 返回列表